  0
SECTION
  2
HEADER
  9
$ACADVER
  1
AC1018
  9
$ACADMAINTVER
 70
   104
  9
$DWGCODEPAGE
  3
ANSI_936
  9
$INSBASE
 10
-46.40660826349699
 20
65.50375871393178
 30
0.0
  9
$EXTMIN
 10
-133.2000498853733
 20
-59.48958693768827
 30
-0.0000000349181948
  9
$EXTMAX
 10
441.5001731495599
 20
145.4958274597401
 30
0.0000000814935747
  9
$LIMMIN
 10
0.0
 20
0.0
  9
$LIMMAX
 10
11.6929133858
 20
8.267716535399999
  9
$ORTHOMODE
 70
     0
  9
$REGENMODE
 70
     1
  9
$FILLMODE
 70
     1
  9
$QTEXTMODE
 70
     0
  9
$MIRRTEXT
 70
     0
  9
$LTSCALE
 40
0.6431102362
  9
$ATTMODE
 70
     1
  9
$TEXTSIZE
 40
0.2
  9
$TRACEWID
 40
0.05
  9
$TEXTSTYLE
  7
STANDARD
  9
$CLAYER
  8
0
  9
$CELTYPE
  6
BYLAYER
  9
$CECOLOR
 62
     2
  9
$CELTSCALE
 40
1.0
  9
$DISPSILH
 70
     0
  9
$DIMSCALE
 40
1.0
  9
$DIMASZ
 40
0.1875
  9
$DIMEXO
 40
0.0730807087
  9
$DIMDLI
 40
0.4443307087
  9
$DIMRND
 40
0.0
  9
$DIMDLE
 40
0.0
  9
$DIMEXE
 40
0.2104724409
  9
$DIMTP
 40
0.0
  9
$DIMTM
 40
0.0
  9
$DIMTXT
 40
3.0
  9
$DIMCEN
 40
0.1052362205
  9
$DIMTSZ
 40
0.0
  9
$DIMTOL
 70
     0
  9
$DIMLIM
 70
     0
  9
$DIMTIH
 70
     1
  9
$DIMTOH
 70
     1
  9
$DIMSE1
 70
     0
  9
$DIMSE2
 70
     0
  9
$DIMTAD
 70
     0
  9
$DIMZIN
 70
     0
  9
$DIMBLK
  1

  9
$DIMASO
 70
     1
  9
$DIMSHO
 70
     1
  9
$DIMPOST
  1

  9
$DIMAPOST
  1

  9
$DIMALT
 70
     0
  9
$DIMALTD
 70
     2
  9
$DIMALTF
 40
25.4
  9
$DIMLFAC
 40
1.0
  9
$DIMTOFL
 70
     0
  9
$DIMTVP
 40
0.0
  9
$DIMTIX
 70
     0
  9
$DIMSOXD
 70
     0
  9
$DIMSAH
 70
     0
  9
$DIMBLK1
  1

  9
$DIMBLK2
  1

  9
$DIMSTYLE
  2
STANDARD
  9
$DIMCLRD
 70
     1
  9
$DIMCLRE
 70
     1
  9
$DIMCLRT
 70
   256
  9
$DIMTFAC
 40
1.0
  9
$DIMGAP
 40
0.09
  9
$DIMJUST
 70
     0
  9
$DIMSD1
 70
     0
  9
$DIMSD2
 70
     0
  9
$DIMTOLJ
 70
     1
  9
$DIMTZIN
 70
     0
  9
$DIMALTZ
 70
     0
  9
$DIMALTTZ
 70
     0
  9
$DIMUPT
 70
     0
  9
$DIMDEC
 70
     4
  9
$DIMTDEC
 70
     4
  9
$DIMALTU
 70
     2
  9
$DIMALTTD
 70
     2
  9
$DIMTXSTY
  7
STANDARD
  9
$DIMAUNIT
 70
     0
  9
$DIMADEC
 70
     0
  9
$DIMALTRND
 40
0.0
  9
$DIMAZIN
 70
     0
  9
$DIMDSEP
 70
    46
  9
$DIMATFIT
 70
     3
  9
$DIMFRAC
 70
     0
  9
$DIMLDRBLK
  1

  9
$DIMLUNIT
 70
     2
  9
$DIMLWD
 70
    -2
  9
$DIMLWE
 70
    -2
  9
$DIMTMOVE
 70
     0
  9
$LUNITS
 70
     2
  9
$LUPREC
 70
     4
  9
$SKETCHINC
 40
0.1
  9
$FILLETRAD
 40
0.0
  9
$AUNITS
 70
     0
  9
$AUPREC
 70
     0
  9
$MENU
  1
.
  9
$ELEVATION
 40
0.0
  9
$PELEVATION
 40
0.0
  9
$THICKNESS
 40
0.0
  9
$LIMCHECK
 70
     0
  9
$CHAMFERA
 40
0.0
  9
$CHAMFERB
 40
0.0
  9
$CHAMFERC
 40
0.0
  9
$CHAMFERD
 40
0.0
  9
$SKPOLY
 70
     0
  9
$TDCREATE
 40
2459863.649754676
  9
$TDUCREATE
 40
2459863.316421343
  9
$TDUPDATE
 40
2459863.649754676
  9
$TDUUPDATE
 40
2459863.316421343
  9
$TDINDWG
 40
0.0770605671
  9
$TDUSRTIMER
 40
0.0770569097
  9
$USRTIMER
 70
     1
  9
$ANGBASE
 50
0.0
  9
$ANGDIR
 70
     0
  9
$PDMODE
 70
     3
  9
$PDSIZE
 40
0.3125
  9
$PLINEWID
 40
0.0
  9
$SPLFRAME
 70
     0
  9
$SPLINETYPE
 70
     6
  9
$SPLINESEGS
 70
     8
  9
$HANDSEED
  5
671
  9
$SURFTAB1
 70
     6
  9
$SURFTAB2
 70
     6
  9
$SURFTYPE
 70
     6
  9
$SURFU
 70
     6
  9
$SURFV
 70
     6
  9
$UCSBASE
  2

  9
$UCSNAME
  2

  9
$UCSORG
 10
0.0
 20
0.0
 30
0.0
  9
$UCSXDIR
 10
1.0
 20
0.0
 30
0.0
  9
$UCSYDIR
 10
0.0
 20
1.0
 30
0.0
  9
$UCSORTHOREF
  2

  9
$UCSORTHOVIEW
 70
     0
  9
$UCSORGTOP
 10
0.0
 20
0.0
 30
0.0
  9
$UCSORGBOTTOM
 10
0.0
 20
0.0
 30
0.0
  9
$UCSORGLEFT
 10
0.0
 20
0.0
 30
0.0
  9
$UCSORGRIGHT
 10
0.0
 20
0.0
 30
0.0
  9
$UCSORGFRONT
 10
0.0
 20
0.0
 30
0.0
  9
$UCSORGBACK
 10
0.0
 20
0.0
 30
0.0
  9
$PUCSBASE
  2

  9
$PUCSNAME
  2

  9
$PUCSORG
 10
0.0
 20
0.0
 30
0.0
  9
$PUCSXDIR
 10
1.0
 20
0.0
 30
0.0
  9
$PUCSYDIR
 10
0.0
 20
1.0
 30
0.0
  9
$PUCSORTHOREF
  2

  9
$PUCSORTHOVIEW
 70
     0
  9
$PUCSORGTOP
 10
0.0
 20
0.0
 30
0.0
  9
$PUCSORGBOTTOM
 10
0.0
 20
0.0
 30
0.0
  9
$PUCSORGLEFT
 10
0.0
 20
0.0
 30
0.0
  9
$PUCSORGRIGHT
 10
0.0
 20
0.0
 30
0.0
  9
$PUCSORGFRONT
 10
0.0
 20
0.0
 30
0.0
  9
$PUCSORGBACK
 10
0.0
 20
0.0
 30
0.0
  9
$USERI1
 70
     0
  9
$USERI2
 70
     0
  9
$USERI3
 70
     0
  9
$USERI4
 70
     0
  9
$USERI5
 70
     0
  9
$USERR1
 40
0.0
  9
$USERR2
 40
0.0
  9
$USERR3
 40
0.0
  9
$USERR4
 40
0.0
  9
$USERR5
 40
0.0
  9
$WORLDVIEW
 70
     1
  9
$SHADEDGE
 70
     3
  9
$SHADEDIF
 70
    70
  9
$TILEMODE
 70
     1
  9
$MAXACTVP
 70
    64
  9
$PINSBASE
 10
0.0
 20
0.0
 30
0.0
  9
$PLIMCHECK
 70
     0
  9
$PEXTMIN
 10
1.000000000000000E+20
 20
1.000000000000000E+20
 30
1.000000000000000E+20
  9
$PEXTMAX
 10
-1.000000000000000E+20
 20
-1.000000000000000E+20
 30
-1.000000000000000E+20
  9
$PLIMMIN
 10
0.0
 20
0.0
  9
$PLIMMAX
 10
12.0
 20
9.0
  9
$UNITMODE
 70
     0
  9
$VISRETAIN
 70
     1
  9
$PLINEGEN
 70
     0
  9
$PSLTSCALE
 70
     1
  9
$TREEDEPTH
 70
  3020
  9
$CMLSTYLE
  2
Standard
  9
$CMLJUST
 70
     0
  9
$CMLSCALE
 40
1.0
  9
$PROXYGRAPHICS
 70
     1
  9
$MEASUREMENT
 70
     0
  9
$CELWEIGHT
370
    -1
  9
$ENDCAPS
280
     0
  9
$JOINSTYLE
280
     0
  9
$LWDISPLAY
290
     0
  9
$INSUNITS
 70
     4
  9
$HYPERLINKBASE
  1

  9
$STYLESHEET
  1

  9
$XEDIT
290
     1
  9
$CEPSNTYPE
380
     0
  9
$PSTYLEMODE
290
     1
  9
$FINGERPRINTGUID
  2
{CD585DEE-45E6-4DE5-ACD3-38BD4AE0998B}
  9
$VERSIONGUID
  2
{5DA7A3D6-DE8E-4FD6-9466-9A8E390B637B}
  9
$EXTNAMES
290
     1
  9
$PSVPSCALE
 40
0.0
  9
$OLESTARTUP
290
     0
  9
$SORTENTS
280
   127
  9
$INDEXCTL
280
     0
  9
$HIDETEXT
280
     1
  9
$XCLIPFRAME
290
     0
  9
$HALOGAP
280
     0
  9
$OBSCOLOR
 70
   257
  9
$OBSLTYPE
280
     0
  9
$INTERSECTIONDISPLAY
280
     0
  9
$INTERSECTIONCOLOR
 70
   257
  9
$DIMASSOC
280
     2
  9
$PROJECTNAME
  1

  0
ENDSEC
  0
SECTION
  2
CLASSES
  0
CLASS
  1
ACDBDICTIONARYWDFLT
  2
AcDbDictionaryWithDefault
  3
ObjectDBX Classes
 90
        0
 91
        1
280
     0
281
     0
  0
CLASS
  1
ACDBPLACEHOLDER
  2
AcDbPlaceHolder
  3
ObjectDBX Classes
 90
        0
 91
        1
280
     0
281
     0
  0
CLASS
  1
LAYOUT
  2
AcDbLayout
  3
ObjectDBX Classes
 90
        0
 91
        2
280
     0
281
     0
  0
CLASS
  1
MATERIAL
  2
AcDbMaterial
  3
ObjectDBX Classes
 90
     1024
 91
        3
280
     0
281
     0
  0
CLASS
  1
VISUALSTYLE
  2
AcDbVisualStyle
  3
ObjectDBX Classes
 90
     4095
 91
        3
280
     0
281
     0
  0
CLASS
  1
TABLESTYLE
  2
AcDbTableStyle
  3
ObjectDBX Classes
 90
     4095
 91
        1
280
     0
281
     0
  0
CLASS
  1
SCALE
  2
AcDbScale
  3
ObjectDBX Classes
 90
     1153
 91
        0
280
     1
281
     0
  0
CLASS
  1
MLEADERSTYLE
  2
AcDbMLeaderStyle
  3
ACDB_MLEADERSTYLE_CLASS
 90
     4095
 91
        0
280
     1
281
     0
  0
CLASS
  1
CELLSTYLEMAP
  2
AcDbCellStyleMap
  3
ObjectDBX Classes
 90
     1152
 91
        3
280
     1
281
     0
  0
CLASS
  1
DICTIONARYVAR
  2
AcDbDictionaryVar
  3
ObjectDBX Classes
 90
        0
 91
        3
280
     0
281
     0
  0
CLASS
  1
DIMASSOC
  2
AcDbDimAssoc
  3
"AcDbDimAssoc|Product Desc:     AcDim ARX App For Dimension|Company:          Autodesk, Inc.|WEB Address:      www.autodesk.com"
 90
        0
 91
        5
280
     0
281
     0
  0
CLASS
  1
SOLID_BACKGROUND
  2
AcDbSolidBackground
  3
SCENEOE
 90
     4095
 91
        0
280
     1
281
     0
  0
CLASS
  1
NPOCOLLECTION
  2
AcDbImpNonPersistentObjectsCollection
  3
ObjectDBX Classes
 90
     1153
 91
        0
280
     0
281
     0
  0
ENDSEC
  0
SECTION
  2
TABLES
  0
TABLE
  2
VPORT
  5
2C
330
0
100
AcDbSymbolTable
 70
     1
  0
VPORT
  5
2D
330
2C
100
AcDbSymbolTableRecord
100
AcDbViewportTableRecord
  2
*ACTIVE
 70
     0
 10
0.0
 20
0.0
 11
1.0
 21
1.0
 12
58.79385415249069
 22
21.56742701797157
 13
0.0
 23
0.0
 14
1.0
 24
1.0
 15
0.0
 25
0.0
 16
0.0
 26
0.0
 36
1.0
 17
0.0
 27
0.0
 37
0.0
 40
225.5695929518452
 41
1.898446833930704
 42
50.0
 43
0.0
 44
0.0
 50
0.0
 51
0.0
 71
     0
 72
   100
 73
     1
 74
     1
 75
     0
 76
     0
 77
     0
 78
     0
281
     0
 65
     1
110
0.0
120
0.0
130
0.0
111
1.0
121
0.0
131
0.0
112
0.0
122
1.0
132
0.0
 79
     0
146
0.0
  0
ENDTAB
  0
TABLE
  2
LTYPE
  5
27
330
0
100
AcDbSymbolTable
 70
     1
  0
LTYPE
  5
28
330
27
100
AcDbSymbolTableRecord
100
AcDbLinetypeTableRecord
  2
BYBLOCK
 70
     0
  3

 72
    65
 73
     0
 40
0.0
  0
LTYPE
  5
29
330
27
100
AcDbSymbolTableRecord
100
AcDbLinetypeTableRecord
  2
BYLAYER
 70
     0
  3

 72
    65
 73
     0
 40
0.0
  0
LTYPE
  5
12
330
27
100
AcDbSymbolTableRecord
100
AcDbLinetypeTableRecord
  2
CONTINUOUS
 70
     0
  3
Solid line
 72
    65
 73
     0
 40
0.0
  0
ENDTAB
  0
TABLE
  2
LAYER
  5
23
330
0
100
AcDbSymbolTable
 70
     3
  0
LAYER
  5
4
330
23
100
AcDbSymbolTableRecord
100
AcDbLayerTableRecord
  2
0
 70
     0
 62
     7
  6
CONTINUOUS
370
    -3
390
5
  0
LAYER
  5
1A9
330
23
100
AcDbSymbolTableRecord
100
AcDbLayerTableRecord
  2
Defpoints
 70
     0
 62
     7
  6
CONTINUOUS
290
     0
370
    -3
390
5
  0
LAYER
  5
1C1
330
23
100
AcDbSymbolTableRecord
100
AcDbLayerTableRecord
  2
8_4_1_1
 70
     0
 62
     7
  6
CONTINUOUS
370
    -3
390
5
  0
ENDTAB
  0
TABLE
  2
STYLE
  5
24
330
0
100
AcDbSymbolTable
 70
     1
  0
STYLE
  5
25
330
24
100
AcDbSymbolTableRecord
100
AcDbTextStyleTableRecord
  2
STANDARD
 70
     0
 40
0.0
 41
0.8
 50
0.0
 71
     0
 42
0.2
  3
txt
  4

  0
ENDTAB
  0
TABLE
  2
VIEW
  5
2A
330
0
100
AcDbSymbolTable
 70
     0
  0
ENDTAB
  0
TABLE
  2
UCS
  5
2B
330
0
100
AcDbSymbolTable
 70
     0
  0
ENDTAB
  0
TABLE
  2
APPID
  5
31
330
0
100
AcDbSymbolTable
 70
     1
  0
APPID
  5
30
330
31
100
AcDbSymbolTableRecord
100
AcDbRegAppTableRecord
  2
ACAD
 70
     0
  0
ENDTAB
  0
TABLE
  2
DIMSTYLE
  5
32
330
0
100
AcDbSymbolTable
 70
     1
100
AcDbDimStyleTable
 71
     1
340
33
  0
DIMSTYLE
105
33
102
{ACAD_REACTORS
330
19C
330
1AD
330
2FE
330
641
330
651
102
}
330
32
100
AcDbSymbolTableRecord
100
AcDbDimStyleTableRecord
  2
STANDARD
 70
     0
 41
0.1875
 47
0.01
 48
0.01
 78
     4
140
0.15625
271
     2
272
     2
284
     4
340
25
  0
ENDTAB
  0
TABLE
  2
BLOCK_RECORD
  5
1
330
0
100
AcDbSymbolTable
 70
     5
  0
BLOCK_RECORD
  5
2
330
1
100
AcDbSymbolTableRecord
100
AcDbBlockTableRecord
  2
*Model_Space
340
1D
  0
BLOCK_RECORD
  5
1F
330
1
100
AcDbSymbolTableRecord
100
AcDbBlockTableRecord
  2
*Paper_Space
340
22
  0
BLOCK_RECORD
  5
19F
330
1
100
AcDbSymbolTableRecord
100
AcDbBlockTableRecord
  2
*D0
340
0
  0
BLOCK_RECORD
  5
1B0
330
1
100
AcDbSymbolTableRecord
100
AcDbBlockTableRecord
  2
*D1
340
0
  0
BLOCK_RECORD
  5
301
330
1
100
AcDbSymbolTableRecord
100
AcDbBlockTableRecord
  2
*D2
340
0
  0
BLOCK_RECORD
  5
644
330
1
100
AcDbSymbolTableRecord
100
AcDbBlockTableRecord
  2
*D3
340
0
  0
BLOCK_RECORD
  5
654
330
1
100
AcDbSymbolTableRecord
100
AcDbBlockTableRecord
  2
*D4
340
0
  0
ENDTAB
  0
ENDSEC
  0
SECTION
  2
BLOCKS
  0
BLOCK
  5
3
330
2
100
AcDbEntity
  8
0
100
AcDbBlockBegin
  2
*Model_Space
 70
     0
 10
0.0
 20
0.0
 30
0.0
  3
*Model_Space
  1

  0
ENDBLK
  5
1C
330
2
100
AcDbEntity
  8
0
100
AcDbBlockEnd
  0
BLOCK
  5
20
330
1F
100
AcDbEntity
 67
     1
  8
0
100
AcDbBlockBegin
  2
*Paper_Space
 70
     0
 10
0.0
 20
0.0
 30
0.0
  3
*Paper_Space
  1

  0
ENDBLK
  5
21
330
1F
100
AcDbEntity
 67
     1
  8
0
100
AcDbBlockEnd
  0
BLOCK
  5
1A0
330
19F
100
AcDbEntity
  8
0
 62
     1
100
AcDbBlockBegin
  2
*D0
 70
     1
 10
0.0
 20
0.0
 30
0.0
  3
*D0
  1

  0
LINE
  5
1A1
330
19F
100
AcDbEntity
  8
0
 62
     1
370
    -2
100
AcDbLine
 10
333.0528305226283
 20
35.16355628578085
 30
0.0
 11
333.0528305226283
 21
39.88549775261862
 31
0.0
  0
LINE
  5
1A2
330
19F
100
AcDbEntity
  8
0
 62
     1
370
    -2
100
AcDbLine
 10
332.2528305224283
 20
35.16355628578085
 30
0.0
 11
332.2528305224283
 21
39.88549775261862
 31
0.0
  0
LINE
  5
1A3
330
19F
100
AcDbEntity
  8
0
 62
     1
370
    -2
100
AcDbLine
 10
332.8653305226282
 20
39.67502531171863
 30
0.0
 11
332.4403305224283
 21
39.67502531171863
 31
0.0
  0
LINE
  5
1A4
330
19F
100
AcDbEntity
  8
0
 62
     1
370
    -2
100
AcDbLine
 10
332.2528305224283
 20
39.67502531171863
 30
0.0
 11
332.0653305224283
 21
39.67502531171863
 31
0.0
  0
SOLID
  5
1A5
330
19F
100
AcDbEntity
  8
0
 62
     1
100
AcDbTrace
 10
332.8653305226282
 20
39.70627531171863
 30
0.0
 11
332.8653305226282
 21
39.64377531171863
 31
0.0
 12
333.0528305226283
 22
39.67502531171863
 32
0.0
 13
333.0528305226283
 23
39.67502531171863
 33
0.0
  0
SOLID
  5
1A6
330
19F
100
AcDbEntity
  8
0
 62
     1
100
AcDbTrace
 10
332.4403305224283
 20
39.70627531171863
 30
0.0
 11
332.4403305224283
 21
39.64377531171863
 31
0.0
 12
332.2528305224283
 22
39.67502531171863
 32
0.0
 13
332.2528305224283
 23
39.67502531171863
 33
0.0
  0
MTEXT
  5
1A7
330
19F
100
AcDbEntity
  8
0
100
AcDbMText
 10
326.7753305224283
 20
39.67502531171863
 30
0.0
 40
3.0
 41
0.0
 71
     5
 72
     1
  1
\A1;0.8000
 73
     1
 44
1.0
 90
        1
 63
     1
 45
1.25
441
  3805196
  0
POINT
  5
1A8
330
19F
100
AcDbEntity
  8
Defpoints
 62
     0
100
AcDbPoint
 10
333.0528305226283
 20
35.09047557708085
 30
0.0
  0
POINT
  5
1AA
330
19F
100
AcDbEntity
  8
Defpoints
 62
     0
100
AcDbPoint
 10
332.2528305224283
 20
35.09047557708085
 30
0.0
  0
POINT
  5
1AB
330
19F
100
AcDbEntity
  8
Defpoints
 62
     0
100
AcDbPoint
 10
332.2528305224283
 20
39.67502531171863
 30
0.0
  0
ENDBLK
  5
1AC
330
19F
100
AcDbEntity
  8
0
 62
     1
100
AcDbBlockEnd
  0
BLOCK
  5
1B1
330
1B0
100
AcDbEntity
  8
0
 62
     1
100
AcDbBlockBegin
  2
*D1
 70
     1
 10
0.0
 20
0.0
 30
0.0
  3
*D1
  1

  0
LINE
  5
1B2
330
1B0
100
AcDbEntity
  8
0
 62
     1
370
    -2
100
AcDbLine
 10
306.0694120181483
 20
33.66355628604085
 30
0.0
 11
306.0694120181483
 21
40.0398807020344
 31
0.0
  0
LINE
  5
1B3
330
1B0
100
AcDbEntity
  8
0
 62
     1
370
    -2
100
AcDbLine
 10
300.9694120187783
 20
33.66355628604085
 30
0.0
 11
300.9694120187783
 21
40.0398807020344
 31
0.0
  0
LINE
  5
1B4
330
1B0
100
AcDbEntity
  8
0
 62
     1
370
    -2
100
AcDbLine
 10
305.8819120181483
 20
39.8294082611344
 30
0.0
 11
301.1569120187783
 21
39.8294082611344
 31
0.0
  0
LINE
  5
1B5
330
1B0
100
AcDbEntity
  8
0
 62
     1
370
    -2
100
AcDbLine
 10
300.9694120187783
 20
39.8294082611344
 30
0.0
 11
300.7819120187783
 21
39.8294082611344
 31
0.0
  0
SOLID
  5
1B6
330
1B0
100
AcDbEntity
  8
0
 62
     1
100
AcDbTrace
 10
305.8819120181483
 20
39.86065826113441
 30
0.0
 11
305.8819120181483
 21
39.79815826113441
 31
0.0
 12
306.0694120181483
 22
39.8294082611344
 32
0.0
 13
306.0694120181483
 23
39.8294082611344
 33
0.0
  0
SOLID
  5
1B7
330
1B0
100
AcDbEntity
  8
0
 62
     1
100
AcDbTrace
 10
301.1569120187783
 20
39.86065826113441
 30
0.0
 11
301.1569120187783
 21
39.79815826113441
 31
0.0
 12
300.9694120187783
 22
39.8294082611344
 32
0.0
 13
300.9694120187783
 23
39.8294082611344
 33
0.0
  0
MTEXT
  5
1B8
330
1B0
100
AcDbEntity
  8
0
100
AcDbMText
 10
295.6919120187783
 20
39.8294082611344
 30
0.0
 40
3.0
 41
0.0
 71
     5
 72
     1
  1
\A1;5.1000
 73
     1
 44
1.0
 90
        1
 63
     1
 45
1.25
441
  3805196
  0
POINT
  5
1B9
330
1B0
100
AcDbEntity
  8
Defpoints
 62
     0
100
AcDbPoint
 10
306.0694120181483
 20
33.59047557734085
 30
0.0
  0
POINT
  5
1BA
330
1B0
100
AcDbEntity
  8
Defpoints
 62
     0
100
AcDbPoint
 10
300.9694120187783
 20
33.59047557734085
 30
0.0
  0
POINT
  5
1BB
330
1B0
100
AcDbEntity
  8
Defpoints
 62
     0
100
AcDbPoint
 10
300.9694120187783
 20
39.8294082611344
 30
0.0
  0
ENDBLK
  5
1BC
330
1B0
100
AcDbEntity
  8
0
 62
     1
100
AcDbBlockEnd
  0
BLOCK
  5
302
330
301
100
AcDbEntity
  8
0
 62
     1
100
AcDbBlockBegin
  2
*D2
 70
     1
 10
0.0
 20
0.0
 30
0.0
  3
*D2
  1

  0
LINE
  5
303
330
301
100
AcDbEntity
  8
0
 62
     1
370
    -2
100
AcDbLine
 10
422.5833546694812
 20
35.92165724840457
 30
0.0
 11
422.5833546694812
 21
38.65332569443808
 31
0.0
  0
LINE
  5
304
330
301
100
AcDbEntity
  8
0
 62
     1
370
    -2
100
AcDbLine
 10
421.7833546692816
 20
35.92165724840457
 30
0.0
 11
421.7833546692816
 21
38.65332569443808
 31
0.0
  0
LINE
  5
305
330
301
100
AcDbEntity
  8
0
 62
     1
370
    -2
100
AcDbLine
 10
422.3958546694815
 20
38.44285325353808
 30
0.0
 11
421.9708546692817
 21
38.44285325353808
 31
0.0
  0
LINE
  5
306
330
301
100
AcDbEntity
  8
0
 62
     1
370
    -2
100
AcDbLine
 10
421.7833546692816
 20
38.44285325353808
 30
0.0
 11
421.5958546692816
 21
38.44285325353808
 31
0.0
  0
SOLID
  5
307
330
301
100
AcDbEntity
  8
0
 62
     1
100
AcDbTrace
 10
422.3958546694815
 20
38.47410325353808
 30
0.0
 11
422.3958546694815
 21
38.41160325353808
 31
0.0
 12
422.5833546694812
 22
38.44285325353808
 32
0.0
 13
422.5833546694812
 23
38.44285325353808
 33
0.0
  0
SOLID
  5
308
330
301
100
AcDbEntity
  8
0
 62
     1
100
AcDbTrace
 10
421.9708546692817
 20
38.47410325353808
 30
0.0
 11
421.9708546692817
 21
38.41160325353808
 31
0.0
 12
421.7833546692816
 22
38.44285325353808
 32
0.0
 13
421.7833546692816
 23
38.44285325353808
 33
0.0
  0
MTEXT
  5
309
330
301
100
AcDbEntity
  8
0
100
AcDbMText
 10
416.3058546692816
 20
38.44285325353808
 30
0.0
 40
3.0
 41
0.0
 71
     5
 72
     1
  1
\A1;0.8000
 73
     1
 44
1.0
 90
        1
 63
     1
 45
1.25
441
  9308504
  0
POINT
  5
30A
330
301
100
AcDbEntity
  8
Defpoints
 62
     0
100
AcDbPoint
 10
422.5833546694812
 20
35.84857653970456
 30
0.0
  0
POINT
  5
30B
330
301
100
AcDbEntity
  8
Defpoints
 62
     0
100
AcDbPoint
 10
421.7833546692816
 20
35.84857653970456
 30
0.0
  0
POINT
  5
30C
330
301
100
AcDbEntity
  8
Defpoints
 62
     0
100
AcDbPoint
 10
421.7833546692816
 20
38.44285325353808
 30
0.0
  0
ENDBLK
  5
30D
330
301
100
AcDbEntity
  8
0
 62
     1
100
AcDbBlockEnd
  0
BLOCK
  5
645
330
644
100
AcDbEntity
  8
0
 62
     5
100
AcDbBlockBegin
  2
*D3
 70
     1
 10
0.0
 20
0.0
 30
0.0
  3
*D3
  1

  0
LINE
  5
646
330
644
100
AcDbEntity
  8
0
 62
     1
370
    -2
100
AcDbLine
 10
-95.15660826393698
 20
126.8457039738117
 30
0.0
 11
-95.15660826393698
 21
142.9520920987883
 31
0.0
  0
LINE
  5
647
330
644
100
AcDbEntity
  8
0
 62
     1
370
    -2
100
AcDbLine
 10
-41.15660826313699
 20
126.8457039738117
 30
0.0
 11
-41.15660826313699
 21
142.9520920987883
 31
0.0
  0
LINE
  5
648
330
644
100
AcDbEntity
  8
0
 62
     1
370
    -2
100
AcDbLine
 10
-94.96910826393699
 20
142.7416196578883
 30
0.0
 11
-74.64660826353697
 21
142.7416196578883
 31
0.0
  0
LINE
  5
649
330
644
100
AcDbEntity
  8
0
 62
     1
370
    -2
100
AcDbLine
 10
-41.34410826313699
 20
142.7416196578883
 30
0.0
 11
-61.66660826353698
 21
142.7416196578883
 31
0.0
  0
SOLID
  5
64A
330
644
100
AcDbEntity
  8
0
 62
     1
100
AcDbTrace
 10
-94.96910826393699
 20
142.7728696578883
 30
0.0
 11
-94.96910826393699
 21
142.7103696578883
 31
0.0
 12
-95.15660826393698
 22
142.7416196578883
 32
0.0
 13
-95.15660826393698
 23
142.7416196578883
 33
0.0
  0
SOLID
  5
64B
330
644
100
AcDbEntity
  8
0
 62
     1
100
AcDbTrace
 10
-41.34410826313699
 20
142.7728696578883
 30
0.0
 11
-41.34410826313699
 21
142.7103696578883
 31
0.0
 12
-41.15660826313699
 22
142.7416196578883
 32
0.0
 13
-41.15660826313699
 23
142.7416196578883
 33
0.0
  0
MTEXT
  5
64C
330
644
100
AcDbEntity
  8
0
100
AcDbMText
 10
-68.15660826353698
 20
142.7416196578883
 30
0.0
 40
3.0
 41
0.0
 71
     5
 72
     1
  1
\A1;54.0000
 73
     1
 44
1.0
 90
        1
 63
     1
 45
1.25
441
   480656
  0
POINT
  5
64D
330
644
100
AcDbEntity
  8
Defpoints
 62
     0
100
AcDbPoint
 10
-95.15660826393698
 20
126.7726232651117
 30
0.0
  0
POINT
  5
64E
330
644
100
AcDbEntity
  8
Defpoints
 62
     0
100
AcDbPoint
 10
-41.15660826313699
 20
126.7726232651117
 30
0.0
  0
POINT
  5
64F
330
644
100
AcDbEntity
  8
Defpoints
 62
     0
100
AcDbPoint
 10
-41.15660826313699
 20
142.7416196578883
 30
0.0
  0
ENDBLK
  5
650
330
644
100
AcDbEntity
  8
0
 62
     5
100
AcDbBlockEnd
  0
BLOCK
  5
655
330
654
100
AcDbEntity
  8
0
 62
     5
100
AcDbBlockBegin
  2
*D4
 70
     1
 10
0.0
 20
0.0
 30
0.0
  3
*D4
  1

  0
LINE
  5
656
330
654
100
AcDbEntity
  8
0
 62
     1
370
    -2
100
AcDbLine
 10
-41.08352755443699
 20
126.7726232651117
 30
0.0
 11
-28.53645675271314
 21
126.7726232651117
 31
0.0
  0
LINE
  5
657
330
654
100
AcDbEntity
  8
0
 62
     1
370
    -2
100
AcDbLine
 10
-41.08352755443699
 20
125.7726232661317
 30
0.0
 11
-28.53645675271314
 21
125.7726232661317
 31
0.0
  0
LINE
  5
658
330
654
100
AcDbEntity
  8
0
 62
     1
370
    -2
100
AcDbLine
 10
-28.74692919361314
 20
126.5851232651117
 30
0.0
 11
-28.74692919361314
 21
125.9601232661317
 31
0.0
  0
LINE
  5
659
330
654
100
AcDbEntity
  8
0
 62
     1
370
    -2
100
AcDbLine
 10
-28.74692919361314
 20
125.7726232661317
 30
0.0
 11
-28.74692919361314
 21
125.5851232661317
 31
0.0
  0
LINE
  5
65A
330
654
100
AcDbEntity
  8
0
 62
     1
370
    -2
100
AcDbLine
 10
-28.74692919361314
 20
125.5851232661317
 30
0.0
 11
-28.93442919361314
 21
125.5851232661317
 31
0.0
  0
SOLID
  5
65B
330
654
100
AcDbEntity
  8
0
 62
     1
100
AcDbTrace
 10
-28.77817919361314
 20
126.5851232651117
 30
0.0
 11
-28.71567919361314
 21
126.5851232651117
 31
0.0
 12
-28.74692919361314
 22
126.7726232651117
 32
0.0
 13
-28.74692919361314
 23
126.7726232651117
 33
0.0
  0
SOLID
  5
65C
330
654
100
AcDbEntity
  8
0
 62
     1
100
AcDbTrace
 10
-28.77817919361314
 20
125.9601232661317
 30
0.0
 11
-28.71567919361314
 21
125.9601232661317
 31
0.0
 12
-28.74692919361314
 22
125.7726232661317
 32
0.0
 13
-28.74692919361314
 23
125.7726232661317
 33
0.0
  0
MTEXT
  5
65D
330
654
100
AcDbEntity
  8
0
100
AcDbMText
 10
-33.82442919361317
 20
125.5851232661317
 30
0.0
 40
3.0
 41
0.0
 71
     5
 72
     1
  1
\A1;1.0000
 73
     1
 44
1.0
 90
        1
 63
     1
 45
1.25
441
 10685392
  0
POINT
  5
65E
330
654
100
AcDbEntity
  8
Defpoints
 62
     0
100
AcDbPoint
 10
-41.15660826313699
 20
126.7726232651117
 30
0.0
  0
POINT
  5
65F
330
654
100
AcDbEntity
  8
Defpoints
 62
     0
100
AcDbPoint
 10
-41.15660826313699
 20
125.7726232661317
 30
0.0
  0
POINT
  5
660
330
654
100
AcDbEntity
  8
Defpoints
 62
     0
100
AcDbPoint
 10
-28.74692919361314
 20
125.7726232661317
 30
0.0
  0
ENDBLK
  5
661
330
654
100
AcDbEntity
  8
0
 62
     5
100
AcDbBlockEnd
  0
ENDSEC
  0
SECTION
  2
ENTITIES
  0
MTEXT
  5
49
330
2
100
AcDbEntity
  8
0
 62
     6
100
AcDbMText
 10
281.3119931509437
 20
22.99029722688465
 30
0.0
 40
2.0
 41
9.227781105470851
 71
     1
 72
     5
  1
{\fSimSun|b0|i0|c134|p2;咪头}
 73
     1
 44
1.0
1001
ACAD
1000
ACAD_MTEXT_DEFINED_HEIGHT_BEGIN
1070
    46
1040
3.805500130401236
1000
ACAD_MTEXT_DEFINED_HEIGHT_END
  0
LINE
  5
4A
330
2
100
AcDbEntity
  8
0
 62
     2
100
AcDbLine
 10
303.4361010892859
 20
30.03724977443818
 30
0.0
 11
288.3327385033039
 21
30.01609768997758
 31
0.0
  0
MTEXT
  5
4B
330
2
100
AcDbEntity
  8
0
 62
     2
100
AcDbMText
 10
279.0341446060257
 20
31.93396832955011
 30
0.0
 40
2.0
 41
10.10450233972608
 71
     1
 72
     5
  1
{\fSimSun|b0|i0|c134|p2;触摸顶针}
 73
     1
 44
1.0
  0
LINE
  5
4C
330
2
100
AcDbEntity
  8
0
 62
     5
100
AcDbLine
 10
240.6504641137485
 20
22.5154862010652
 30
0.0
 11
228.5604994622136
 21
22.67862810099222
 31
0.0
  0
MTEXT
  5
4D
330
2
100
AcDbEntity
  8
0
 62
     2
100
AcDbMText
 10
224.6265817968483
 20
24.38022684927047
 30
0.0
 40
2.0
 41
7.678172480202871
 71
     1
 72
     5
  1
{\fSimSun|b0|i0|c134|p2;\C5;主控}
 73
     1
 44
1.0
  0
LINE
  5
4E
330
2
100
AcDbEntity
  8
0
 62
     6
100
AcDbLine
 10
285.7004175644592
 20
22.35523231357683
 30
0.0
 11
303.7900396087536
 21
33.1141504661162
 31
0.0
  0
LINE
  5
4F
330
2
100
AcDbEntity
  8
0
 62
     6
100
AcDbLine
 10
285.7227765662387
 20
20.36805131961728
 30
0.0
 11
303.6237026450769
 21
10.42723748530469
 31
0.0
  0
LINE
  5
50
330
2
100
AcDbEntity
  8
0
 62
     4
100
AcDbLine
 10
302.7737026449703
 20
14.44983865353134
 30
0.0
 11
287.6367568357782
 21
13.70375192506844
 31
0.0
  0
MTEXT
  5
51
330
2
100
AcDbEntity
  8
0
 62
     5
100
AcDbMText
 10
277.1722661812537
 20
15.41705009093744
 30
0.0
 40
2.0
 41
13.48574029770225
 71
     1
 72
     5
  1
{\fSimSun|b0|i0|c134|p2;尾塞定位孔}
 73
     1
 44
1.0
1001
ACAD
1000
ACAD_MTEXT_DEFINED_HEIGHT_BEGIN
1070
    46
1040
3.761275346347018
1000
ACAD_MTEXT_DEFINED_HEIGHT_END
  0
LINE
  5
52
330
2
100
AcDbEntity
  8
0
 62
     4
100
AcDbLine
 10
287.6367568357782
 20
13.70375192506844
 30
0.0
 11
302.0171642444103
 21
13.30979890923134
 31
0.0
  0
LINE
  5
53
330
2
100
AcDbEntity
  8
0
 62
     4
100
AcDbLine
 10
304.4694120190183
 20
17.08861677320827
 30
0.0
 11
287.3820100297057
 21
5.33630626151057
 31
0.0
  0
MTEXT
  5
54
330
2
100
AcDbEntity
  8
0
 62
     4
100
AcDbMText
 10
281.7216109040209
 20
6.613755339371205
 30
0.0
 40
2.0
 41
19.18130661522264
 71
     1
 72
     5
  1
{\fSimSun|b0|i0|c134|p2;天线（暂定位置，有其它更合理位置可改）}
 73
     1
 44
1.0
  0
LINE
  5
55
330
2
100
AcDbEntity
  8
0
  6
Continuous
 62
     4
100
AcDbLine
 10
302.0171642444103
 20
13.30979890923134
 30
0.0
 11
302.717164244797
 21
13.30980017669134
 31
0.0
  0
LINE
  5
56
330
2
100
AcDbEntity
  8
0
 62
     1
100
AcDbLine
 10
304.3680963488787
 20
27.27647267437965
 30
0.0
 11
309.8180388410447
 21
27.84983938459133
 31
0.0
  0
MTEXT
  5
57
330
2
100
AcDbEntity
  8
0
 62
     1
100
AcDbMText
 10
309.8180388410447
 20
27.84983938459133
 30
0.0
 40
2.0
 41
16.08725205039036
 71
     1
 72
     5
  1
LED{\fSimSun|b0|i0|c134|p2;灯}
 73
     1
 44
1.0
  0
LINE
  5
58
330
2
100
AcDbEntity
  8
0
  6
Continuous
 62
     7
100
AcDbLine
 10
239.7270137371992
 20
11.17512732771617
 30
0.0
 11
239.1270137370492
 21
11.17512732771617
 31
0.0
  0
LINE
  5
59
330
2
100
AcDbEntity
  8
0
  6
Continuous
 62
     7
100
AcDbLine
 10
243.1270137380492
 20
11.17512732771617
 30
0.0
 11
243.7270137381993
 21
11.17512732771617
 31
0.0
  0
LINE
  5
5A
330
2
100
AcDbEntity
  8
0
  6
Continuous
 62
     7
100
AcDbLine
 10
239.8204753371692
 20
12.83509306797617
 30
0.0
 11
240.5204753379792
 21
12.83509306797617
 31
0.0
  0
LINE
  5
5B
330
2
100
AcDbEntity
  8
0
  6
Continuous
 62
     7
100
AcDbLine
 10
242.3335521372692
 20
12.83509306797617
 30
0.0
 11
243.0335521380793
 21
12.83509306797617
 31
0.0
  0
LINE
  5
5C
330
2
100
AcDbEntity
  8
0
  6
Continuous
 62
     7
100
AcDbLine
 10
243.0335521380793
 20
13.53509252395617
 30
0.0
 11
242.3335521372692
 21
13.53509252395617
 31
0.0
  0
LINE
  5
5D
330
2
100
AcDbEntity
  8
0
  6
Continuous
 62
     7
100
AcDbLine
 10
240.5204753379792
 20
13.53509252395617
 30
0.0
 11
239.8204753371692
 21
13.53509252395617
 31
0.0
  0
LINE
  5
5E
330
2
100
AcDbEntity
  8
0
  6
Continuous
 62
     7
100
AcDbLine
 10
239.1270137370492
 20
12.87253046706618
 30
0.0
 11
238.8770137379392
 21
13.87253046731617
 31
0.0
  0
LINE
  5
5F
330
2
100
AcDbEntity
  8
0
  6
Continuous
 62
     7
100
AcDbLine
 10
238.8770137379392
 20
25.79412559156617
 30
0.0
 11
238.8770137379392
 21
13.87253046731617
 31
0.0
  0
LINE
  5
60
330
2
100
AcDbEntity
  8
0
  6
Continuous
 62
     7
100
AcDbLine
 10
238.8770137379392
 20
28.55093534209617
 30
0.0
 11
238.8770137379392
 21
33.72513236604616
 31
0.0
  0
LINE
  5
61
330
2
100
AcDbEntity
  8
0
  6
Continuous
 62
     7
100
AcDbLine
 10
239.1270137370492
 20
11.17512732771617
 30
0.0
 11
239.1270137370492
 21
9.974043810406179
 31
0.0
  0
LINE
  5
62
330
2
100
AcDbEntity
  8
0
  6
Continuous
 62
     5
100
AcDbLine
 10
239.4270137377592
 20
25.22513236582617
 30
0.0
 11
239.4270137377592
 21
21.22513236609618
 31
0.0
  0
LINE
  5
63
330
2
100
AcDbEntity
  8
0
  6
Continuous
 62
     7
100
AcDbLine
 10
239.7270137371992
 20
11.17512732771617
 30
0.0
 11
239.7270137371992
 21
12.27253046691617
 31
0.0
  0
LINE
  5
64
330
2
100
AcDbEntity
  8
0
  6
Continuous
 62
     7
100
AcDbLine
 10
239.8204753371692
 20
13.53509252395617
 30
0.0
 11
239.8204753371692
 21
12.83509306797617
 31
0.0
  0
LINE
  5
65
330
2
100
AcDbEntity
  8
0
  6
Continuous
 62
     7
100
AcDbLine
 10
240.5204753379792
 20
12.83509306797617
 30
0.0
 11
240.5204753379792
 21
13.53509252395617
 31
0.0
  0
LINE
  5
66
330
2
100
AcDbEntity
  8
0
  6
Continuous
 62
     5
100
AcDbLine
 10
239.4270137377592
 20
21.22513236609618
 30
0.0
 11
243.4270137374892
 21
21.22513236609618
 31
0.0
  0
LINE
  5
67
330
2
100
AcDbEntity
  8
0
  6
Continuous
 62
     7
100
AcDbLine
 10
242.3335521372692
 20
13.53509252395617
 30
0.0
 11
242.3335521372692
 21
12.83509306797617
 31
0.0
  0
LINE
  5
68
330
2
100
AcDbEntity
  8
0
  6
Continuous
 62
     7
100
AcDbLine
 10
243.0335521380793
 20
12.83509306797617
 30
0.0
 11
243.0335521380793
 21
13.53509252395617
 31
0.0
  0
LINE
  5
69
330
2
100
AcDbEntity
  8
0
  6
Continuous
 62
     7
100
AcDbLine
 10
243.1270137380492
 20
12.27253046691617
 30
0.0
 11
243.1270137380492
 21
11.17512732771617
 31
0.0
  0
LINE
  5
6A
330
2
100
AcDbEntity
  8
0
  6
Continuous
 62
     5
100
AcDbLine
 10
243.4270137374892
 20
21.22513236609618
 30
0.0
 11
243.4270137374892
 21
25.22513236582617
 31
0.0
  0
LINE
  5
6B
330
2
100
AcDbEntity
  8
0
  6
Continuous
 62
     7
100
AcDbLine
 10
243.7270137381993
 20
11.17512732771617
 30
0.0
 11
243.7270137381993
 21
9.974166201576172
 31
0.0
  0
LINE
  5
6C
330
2
100
AcDbEntity
  8
0
  6
Continuous
 62
     7
100
AcDbLine
 10
243.9770137373092
 20
33.72513236604616
 30
0.0
 11
243.9770137373092
 21
19.25093534167617
 31
0.0
  0
LINE
  5
6D
330
2
100
AcDbEntity
  8
0
  6
Continuous
 62
     7
100
AcDbLine
 10
243.9770137373092
 20
13.87253046731617
 30
0.0
 11
243.9770137373092
 21
16.49412559241617
 31
0.0
  0
LINE
  5
6E
330
2
100
AcDbEntity
  8
0
  6
Continuous
 62
     5
100
AcDbLine
 10
243.4270137374892
 20
25.22513236582617
 30
0.0
 11
239.4270137377592
 21
25.22513236582617
 31
0.0
  0
LINE
  5
6F
330
2
100
AcDbEntity
  8
0
  6
Continuous
 62
     7
100
AcDbLine
 10
243.9770137373092
 20
13.87253046731617
 30
0.0
 11
243.7270137381993
 21
12.87253046706618
 31
0.0
  0
LINE
  5
70
330
2
100
AcDbEntity
  8
0
  6
Continuous
 62
     7
100
AcDbLine
 10
240.3770137376792
 20
35.22513236578616
 30
0.0
 11
242.4770137375692
 21
35.22513236578616
 31
0.0
  0
LINE
  5
71
330
2
100
AcDbEntity
  8
0
  6
Continuous
 62
     7
100
AcDbLine
 10
264.1044336805093
 20
8.904452565036171
 30
0.0
 11
264.9044336807092
 21
8.904452565036171
 31
0.0
  0
LINE
  5
72
330
2
100
AcDbEntity
  8
0
  6
Continuous
 62
     7
100
AcDbLine
 10
264.9044336807092
 20
8.996713071396172
 30
0.0
 11
264.1044336805093
 21
8.996713071396172
 31
0.0
  0
LINE
  5
73
330
2
100
AcDbEntity
  8
0
  6
Continuous
 62
     7
100
AcDbLine
 10
265.2044336801492
 20
9.772530466926175
 30
0.0
 11
264.9044336807092
 21
9.772530466926175
 31
0.0
  0
LINE
  5
74
330
2
100
AcDbEntity
  8
0
  6
Continuous
 62
     7
100
AcDbLine
 10
265.7044336809093
 20
9.872530467586171
 30
0.0
 11
265.2044336801492
 21
9.872530467586171
 31
0.0
  0
LINE
  5
75
330
2
100
AcDbEntity
  8
0
  6
Continuous
 62
     7
100
AcDbLine
 10
264.1044336805093
 20
9.974043810406179
 30
0.0
 11
264.9044336807092
 21
9.974043810406179
 31
0.0
  0
LINE
  5
76
330
2
100
AcDbEntity
  8
0
  6
Continuous
 62
     7
100
AcDbLine
 10
265.2044336801492
 20
10.07253046763616
 30
0.0
 11
265.9044336809592
 21
10.07253046763616
 31
0.0
  0
LINE
  5
77
330
2
100
AcDbEntity
  8
0
  6
Continuous
 62
     7
100
AcDbLine
 10
264.9044336807092
 20
11.17512732771617
 30
0.0
 11
264.1044336805093
 21
11.17512732771617
 31
0.0
  0
LINE
  5
78
330
2
100
AcDbEntity
  8
0
  6
Continuous
 62
     7
100
AcDbLine
 10
265.9044336809592
 20
12.22253046658617
 30
0.0
 11
265.2044336801492
 21
12.22253046658617
 31
0.0
  0
LINE
  5
79
330
2
100
AcDbEntity
  8
0
  6
Continuous
 62
     7
100
AcDbLine
 10
264.9044336807092
 20
12.27253046691617
 30
0.0
 11
264.1044336805093
 21
12.27253046691617
 31
0.0
  0
LINE
  5
7A
330
2
100
AcDbEntity
  8
0
  6
Continuous
 62
     7
100
AcDbLine
 10
265.2044336801492
 20
12.42253046663617
 30
0.0
 11
265.7044336809093
 21
12.42253046663617
 31
0.0
  0
LINE
  5
7B
330
2
100
AcDbEntity
  8
0
  6
Continuous
 62
     7
100
AcDbLine
 10
265.2044336801492
 20
12.52253046729617
 30
0.0
 11
264.9044336807092
 21
12.52253046729617
 31
0.0
  0
LINE
  5
7C
330
2
100
AcDbEntity
  8
0
  6
Continuous
 62
     7
100
AcDbLine
 10
264.1044336805093
 20
12.87253046706618
 30
0.0
 11
264.9044336807092
 21
12.87253046706618
 31
0.0
  0
LINE
  5
7D
330
2
100
AcDbEntity
  8
0
  6
Continuous
 62
     7
100
AcDbLine
 10
264.9044336807092
 20
13.87253046731617
 30
0.0
 11
264.1044336805093
 21
13.87253046731617
 31
0.0
  0
LINE
  5
7E
330
2
100
AcDbEntity
  8
0
  6
Continuous
 62
     7
100
AcDbLine
 10
265.4044336801992
 20
16.22513236611618
 30
0.0
 11
264.9044336807092
 21
16.22513236611618
 31
0.0
  0
LINE
  5
7F
330
2
100
AcDbEntity
  8
0
  6
Continuous
 62
     7
100
AcDbLine
 10
264.9044336807092
 20
16.49412559241617
 30
0.0
 11
264.1044336805093
 21
16.49412559241617
 31
0.0
  0
LINE
  5
80
330
2
100
AcDbEntity
  8
0
  6
Continuous
 62
     7
100
AcDbLine
 10
264.1044336805093
 20
16.96943761740618
 30
0.0
 11
264.9044336807092
 21
16.96943761740618
 31
0.0
  0
LINE
  5
81
330
2
100
AcDbEntity
  8
0
  6
Continuous
 62
     7
100
AcDbLine
 10
266.4044336804492
 20
28.82513236672617
 30
0.0
 11
266.3044336810592
 21
28.72513236606617
 31
0.0
  0
LINE
  5
82
330
2
100
AcDbEntity
  8
0
  6
Continuous
 62
     7
100
AcDbLine
 10
267.2044336806493
 20
29.12513236616618
 30
0.0
 11
267.1044336799893
 21
29.02513236677616
 31
0.0
  0
LINE
  5
83
330
2
100
AcDbEntity
  8
0
  6
Continuous
 62
     7
100
AcDbLine
 10
265.4044336801992
 20
18.72513236610617
 30
0.0
 11
264.9044336807092
 21
18.72513236610617
 31
0.0
  0
LINE
  5
84
330
2
100
AcDbEntity
  8
0
  6
Continuous
 62
     7
100
AcDbLine
 10
264.9044336807092
 20
18.77562331668617
 30
0.0
 11
264.1044336805093
 21
18.77562331668617
 31
0.0
  0
LINE
  5
85
330
2
100
AcDbEntity
  8
0
  6
Continuous
 62
     7
100
AcDbLine
 10
264.1044336805093
 20
19.25093534167617
 30
0.0
 11
264.9044336807092
 21
19.25093534167617
 31
0.0
  0
LINE
  5
86
330
2
100
AcDbEntity
  8
0
  6
Continuous
 62
     7
100
AcDbLine
 10
263.1044336802593
 20
21.22513236609618
 30
0.0
 11
263.1044336802593
 21
25.22513236582617
 31
0.0
  0
LINE
  5
87
330
2
100
AcDbEntity
  8
0
  6
Continuous
 62
     7
100
AcDbLine
 10
264.1044336805093
 20
8.904494289616167
 30
0.0
 11
264.1044336805093
 21
35.22513236578616
 31
0.0
  0
LINE
  5
88
330
2
100
AcDbEntity
  8
0
  6
Continuous
 62
     7
100
AcDbLine
 10
263.1044336802593
 20
21.22513236609618
 30
0.0
 11
264.1044336805093
 21
21.22513236609618
 31
0.0
  0
LINE
  5
89
330
2
100
AcDbEntity
  8
0
  6
Continuous
 62
     7
100
AcDbLine
 10
264.9044336807092
 20
8.904494242626173
 30
0.0
 11
264.9044336807092
 21
35.22513236578616
 31
0.0
  0
LINE
  5
8A
330
2
100
AcDbEntity
  8
0
  6
Continuous
 62
     7
100
AcDbLine
 10
265.2044336801492
 20
9.772530466926175
 30
0.0
 11
265.2044336801492
 21
12.52253046729617
 31
0.0
  0
LINE
  5
8B
330
2
100
AcDbEntity
  8
0
  6
Continuous
 62
     7
100
AcDbLine
 10
265.2044336801492
 20
32.22513236630617
 30
0.0
 11
265.2044336801492
 21
34.97513236667618
 31
0.0
  0
LINE
  5
8C
330
2
100
AcDbEntity
  8
0
  6
Continuous
 62
     7
100
AcDbLine
 10
265.4044336801992
 20
16.22513236611618
 30
0.0
 11
265.4044336801992
 21
18.72513236610617
 31
0.0
  0
LINE
  5
8D
330
2
100
AcDbEntity
  8
0
  6
Continuous
 62
     7
100
AcDbLine
 10
265.4044336801992
 20
26.77513236589618
 30
0.0
 11
265.4044336801992
 21
27.77513236614618
 31
0.0
  0
LINE
  5
8E
330
2
100
AcDbEntity
  8
0
  6
Continuous
 62
     7
100
AcDbLine
 10
265.7044336809093
 20
9.872530467586171
 30
0.0
 11
265.7044336809093
 21
12.42253046663617
 31
0.0
  0
LINE
  5
8F
330
2
100
AcDbEntity
  8
0
  6
Continuous
 62
     7
100
AcDbLine
 10
265.7044336809093
 20
32.32513236569617
 30
0.0
 11
265.7044336809093
 21
34.87513236601618
 31
0.0
  0
LINE
  5
90
330
2
100
AcDbEntity
  8
0
  6
Continuous
 62
     7
100
AcDbLine
 10
265.9044336809592
 20
34.67513236596617
 30
0.0
 11
265.9044336809592
 21
32.52513236574618
 31
0.0
  0
LINE
  5
91
330
2
100
AcDbEntity
  8
0
  6
Continuous
 62
     7
100
AcDbLine
 10
265.9044336809592
 20
12.22253046658617
 30
0.0
 11
265.9044336809592
 21
10.07253046763616
 31
0.0
  0
LINE
  5
92
330
2
100
AcDbEntity
  8
0
  6
Continuous
 62
     7
100
AcDbLine
 10
266.3044336810592
 20
28.72513236606617
 30
0.0
 11
266.3044336810592
 21
30.22513236580617
 31
0.0
  0
LINE
  5
93
330
2
100
AcDbEntity
  8
0
  6
Continuous
 62
     7
100
AcDbLine
 10
266.4044336804492
 20
28.82513236672617
 30
0.0
 11
266.4044336804492
 21
30.12513236641618
 31
0.0
  0
LINE
  5
94
330
2
100
AcDbEntity
  8
0
  6
Continuous
 62
     7
100
AcDbLine
 10
267.1044336799893
 20
29.02513236677616
 30
0.0
 11
267.1044336799893
 21
29.92513236636618
 31
0.0
  0
LINE
  5
95
330
2
100
AcDbEntity
  8
0
  6
Continuous
 62
     7
100
AcDbLine
 10
267.2044336806493
 20
29.12513236616618
 30
0.0
 11
267.2044336806493
 21
29.82513236570618
 31
0.0
  0
LINE
  5
96
330
2
100
AcDbEntity
  8
0
  6
Continuous
 62
     7
100
AcDbLine
 10
263.1044336802593
 20
25.22513236582617
 30
0.0
 11
264.1044336805093
 21
25.22513236582617
 31
0.0
  0
LINE
  5
97
330
2
100
AcDbEntity
  8
0
  6
Continuous
 62
     7
100
AcDbLine
 10
265.4044336801992
 20
26.77513236589618
 30
0.0
 11
264.9044336807092
 21
26.77513236589618
 31
0.0
  0
LINE
  5
98
330
2
100
AcDbEntity
  8
0
  6
Continuous
 62
     7
100
AcDbLine
 10
265.4044336801992
 20
27.77513236614618
 30
0.0
 11
264.9044336807092
 21
27.77513236614618
 31
0.0
  0
LINE
  5
99
330
2
100
AcDbEntity
  8
0
  6
Continuous
 62
     7
100
AcDbLine
 10
266.3044336810592
 20
28.72513236606617
 30
0.0
 11
264.9044336807092
 21
28.72513236606617
 31
0.0
  0
LINE
  5
9A
330
2
100
AcDbEntity
  8
0
  6
Continuous
 62
     7
100
AcDbLine
 10
267.1044336799893
 20
29.02513236677616
 30
0.0
 11
266.4044336804492
 21
29.02513236677616
 31
0.0
  0
LINE
  5
9B
330
2
100
AcDbEntity
  8
0
  6
Continuous
 62
     7
100
AcDbLine
 10
266.3044336810592
 20
30.22513236580617
 30
0.0
 11
266.4044336804492
 21
30.12513236641618
 31
0.0
  0
LINE
  5
9C
330
2
100
AcDbEntity
  8
0
  6
Continuous
 62
     7
100
AcDbLine
 10
267.1044336799893
 20
29.92513236636618
 30
0.0
 11
267.2044336806493
 21
29.82513236570618
 31
0.0
  0
LINE
  5
9D
330
2
100
AcDbEntity
  8
0
  6
Continuous
 62
     7
100
AcDbLine
 10
267.1044336799893
 20
29.92513236636618
 30
0.0
 11
266.4044336804492
 21
29.92513236636618
 31
0.0
  0
LINE
  5
9E
330
2
100
AcDbEntity
  8
0
  6
Continuous
 62
     7
100
AcDbLine
 10
266.3044336810592
 20
30.22513236580617
 30
0.0
 11
264.9044336807092
 21
30.22513236580617
 31
0.0
  0
LINE
  5
9F
330
2
100
AcDbEntity
  8
0
  6
Continuous
 62
     7
100
AcDbLine
 10
265.2044336801492
 20
32.22513236630617
 30
0.0
 11
264.9044336807092
 21
32.22513236630617
 31
0.0
  0
LINE
  5
A0
330
2
100
AcDbEntity
  8
0
  6
Continuous
 62
     7
100
AcDbLine
 10
265.7044336809093
 20
32.32513236569617
 30
0.0
 11
265.2044336801492
 21
32.32513236569617
 31
0.0
  0
LINE
  5
A1
330
2
100
AcDbEntity
  8
0
  6
Continuous
 62
     7
100
AcDbLine
 10
265.2044336801492
 20
32.52513236574618
 30
0.0
 11
265.9044336809592
 21
32.52513236574618
 31
0.0
  0
LINE
  5
A2
330
2
100
AcDbEntity
  8
0
  6
Continuous
 62
     7
100
AcDbLine
 10
264.9044336807092
 20
33.72513236604616
 30
0.0
 11
264.1044336805093
 21
33.72513236604616
 31
0.0
  0
LINE
  5
A3
330
2
100
AcDbEntity
  8
0
  6
Continuous
 62
     7
100
AcDbLine
 10
265.9044336809592
 20
34.67513236596617
 30
0.0
 11
265.2044336801492
 21
34.67513236596617
 31
0.0
  0
LINE
  5
A4
330
2
100
AcDbEntity
  8
0
  6
Continuous
 62
     7
100
AcDbLine
 10
265.2044336801492
 20
34.87513236601618
 30
0.0
 11
265.7044336809093
 21
34.87513236601618
 31
0.0
  0
LINE
  5
A5
330
2
100
AcDbEntity
  8
0
  6
Continuous
 62
     7
100
AcDbLine
 10
265.2044336801492
 20
34.97513236667618
 30
0.0
 11
264.9044336807092
 21
34.97513236667618
 31
0.0
  0
LINE
  5
A6
330
2
100
AcDbEntity
  8
0
  6
Continuous
 62
     7
100
AcDbLine
 10
264.1044336805093
 20
35.22513236578616
 30
0.0
 11
264.9044336807092
 21
35.22513236578616
 31
0.0
  0
LINE
  5
A7
330
2
100
AcDbEntity
  8
0
  6
Continuous
 62
     6
100
AcDbLine
 10
304.4444120182183
 20
9.637873678220866
 30
0.0
 11
302.5944120187083
 21
9.637873678220866
 31
0.0
  0
LINE
  5
A8
330
2
100
AcDbEntity
  8
0
  6
Continuous
 62
     6
100
AcDbLine
 10
304.1444120187783
 20
9.737873678880866
 30
0.0
 11
302.8944120181483
 21
9.737873678880866
 31
0.0
  0
LINE
  5
A9
330
2
100
AcDbEntity
  8
0
  6
Continuous
 62
     6
100
AcDbLine
 10
302.6944120180983
 20
9.937873678930856
 30
0.0
 11
304.3444120188283
 21
9.937873678930856
 31
0.0
  0
LINE
  5
AA
330
2
100
AcDbEntity
  8
0
  6
Continuous
 62
     7
100
AcDbLine
 10
301.8194120180384
 20
11.04047053901086
 30
0.0
 11
301.2194120191583
 21
11.04047053901086
 31
0.0
  0
LINE
  5
AB
330
2
100
AcDbEntity
  8
0
  6
Continuous
 62
     7
100
AcDbLine
 10
305.2194120188883
 20
11.04047053901086
 30
0.0
 11
305.8194120190383
 21
11.04047053901086
 31
0.0
  0
LINE
  5
AC
330
2
100
AcDbEntity
  8
0
  6
Continuous
 62
     6
100
AcDbLine
 10
304.3444120188283
 20
12.08787367788086
 30
0.0
 11
302.6944120180983
 21
12.08787367788086
 31
0.0
  0
LINE
  5
AD
330
2
100
AcDbEntity
  8
0
  6
Continuous
 62
     6
100
AcDbLine
 10
302.8944120181483
 20
12.28787367793086
 30
0.0
 11
304.1444120187783
 21
12.28787367793086
 31
0.0
  0
LINE
  5
AE
330
2
100
AcDbEntity
  8
0
  6
Continuous
 62
     6
100
AcDbLine
 10
302.5944120187083
 20
12.38787367859086
 30
0.0
 11
304.4444120182183
 21
12.38787367859086
 31
0.0
  0
LINE
  5
AF
330
2
100
AcDbEntity
  8
0
  6
Continuous
 62
     4
100
AcDbLine
 10
305.1259504189183
 20
12.70043627927086
 30
0.0
 11
304.4259504193783
 21
12.70043627927086
 31
0.0
  0
LINE
  5
B0
330
2
100
AcDbEntity
  8
0
  6
Continuous
 62
     4
100
AcDbLine
 10
302.6128736188183
 20
12.70043627927086
 30
0.0
 11
301.9128736180083
 21
12.70043627927086
 31
0.0
  0
LINE
  5
B1
330
2
100
AcDbEntity
  8
0
  6
Continuous
 62
     4
100
AcDbLine
 10
301.9128736180083
 20
13.40043510152085
 30
0.0
 11
302.6128736188183
 21
13.40043636898086
 31
0.0
  0
LINE
  5
B2
330
2
100
AcDbEntity
  8
0
  6
Continuous
 62
     4
100
AcDbLine
 10
304.4259504193783
 20
13.40043636898086
 30
0.0
 11
305.1259504189183
 21
13.40043510152085
 31
0.0
  0
LINE
  5
B3
330
2
100
AcDbEntity
  8
0
  6
Continuous
 62
     7
100
AcDbLine
 10
305.8694120180983
 20
16.09047557741087
 30
0.0
 11
304.4694120190183
 21
16.09047557741087
 31
0.0
  0
LINE
  5
B4
330
2
100
AcDbEntity
  8
0
  6
Continuous
 62
     7
100
AcDbLine
 10
301.2194120191583
 20
12.73787367836087
 30
0.0
 11
300.9694120187783
 21
13.73787367861087
 31
0.0
  0
LINE
  5
B5
330
2
100
AcDbEntity
  8
0
  6
Continuous
 62
     7
100
AcDbLine
 10
304.4694120190183
 20
18.59047557740086
 30
0.0
 11
305.8694120180983
 21
18.59047557740086
 31
0.0
  0
LINE
  5
B6
102
{ACAD_REACTORS
330
1AF
102
}
330
2
100
AcDbEntity
  8
0
  6
Continuous
 62
     7
100
AcDbLine
 10
300.9694120187783
 20
33.59047557734085
 30
0.0
 11
300.9694120187783
 21
19.11627855297087
 31
0.0
  0
LINE
  5
B7
330
2
100
AcDbEntity
  8
0
  6
Continuous
 62
     7
100
AcDbLine
 10
300.9694120187783
 20
13.73787367861087
 30
0.0
 11
300.9694120187783
 21
16.35946880371086
 31
0.0
  0
LINE
  5
B8
330
2
100
AcDbEntity
  8
0
  6
Continuous
 62
     7
100
AcDbLine
 10
301.2194120191583
 20
11.04047053901086
 30
0.0
 11
301.2194120191583
 21
9.839387021700872
 31
0.0
  0
LINE
  5
B9
330
2
100
AcDbEntity
  8
0
  6
Continuous
 62
     7
100
AcDbLine
 10
301.8194120180384
 20
12.13787367821086
 30
0.0
 11
301.8194120180384
 21
11.04047053901086
 31
0.0
  0
LINE
  5
BA
330
2
100
AcDbEntity
  8
0
  6
Continuous
 62
     4
100
AcDbLine
 10
301.9128736180083
 20
12.70043627927086
 30
0.0
 11
301.9128736180083
 21
13.40043510152085
 31
0.0
  0
LINE
  5
BB
330
2
100
AcDbEntity
  8
0
  6
Continuous
 62
     1
100
AcDbLine
 10
302.5194120188483
 20
26.64047557719087
 30
0.0
 11
302.5194120188483
 21
27.64047557744087
 31
0.0
  0
LINE
  5
BC
330
2
100
AcDbEntity
  8
0
  6
Continuous
 62
     6
100
AcDbLine
 10
302.5944120187083
 20
9.637873678220866
 30
0.0
 11
302.5944120187083
 21
12.38787367859086
 31
0.0
  0
LINE
  5
BD
330
2
100
AcDbEntity
  8
0
  6
Continuous
 62
     6
100
AcDbLine
 10
302.5944120187083
 20
32.09047557760086
 30
0.0
 11
302.5944120187083
 21
34.84047557797088
 31
0.0
  0
LINE
  5
BE
330
2
100
AcDbEntity
  8
0
  6
Continuous
 62
     4
100
AcDbLine
 10
302.6128736188183
 20
13.40043636898086
 30
0.0
 11
302.6128736188183
 21
12.70043627927086
 31
0.0
  0
LINE
  5
BF
330
2
100
AcDbEntity
  8
0
  6
Continuous
 62
     6
100
AcDbLine
 10
302.6944120180983
 20
9.937873678930856
 30
0.0
 11
302.6944120180983
 21
12.08787367788086
 31
0.0
  0
LINE
  5
C0
330
2
100
AcDbEntity
  8
0
  6
Continuous
 62
     6
100
AcDbLine
 10
302.6944120180983
 20
32.39047557704086
 30
0.0
 11
302.6944120180983
 21
34.54047557726087
 31
0.0
  0
LINE
  5
C1
330
2
100
AcDbEntity
  8
0
  6
Continuous
 62
     6
100
AcDbLine
 10
302.8944120181483
 20
34.74047557731086
 30
0.0
 11
302.8944120181483
 21
32.19047557699087
 31
0.0
  0
LINE
  5
C2
330
2
100
AcDbEntity
  8
0
  6
Continuous
 62
     6
100
AcDbLine
 10
302.8944120181483
 20
12.28787367793086
 30
0.0
 11
302.8944120181483
 21
9.737873678880866
 31
0.0
  0
LINE
  5
C3
330
2
100
AcDbEntity
  8
0
  6
Continuous
 62
     1
100
AcDbLine
 10
303.3194120190483
 20
27.64047557744087
 30
0.0
 11
303.3194120190483
 21
26.64047557719087
 31
0.0
  0
LINE
  5
C4
330
2
100
AcDbEntity
  8
0
  6
Continuous
 62
     1
100
AcDbLine
 10
303.7194120191483
 20
26.64047557719087
 30
0.0
 11
303.7194120191483
 21
27.64047557744087
 31
0.0
  0
LINE
  5
C5
330
2
100
AcDbEntity
  8
0
  6
Continuous
 62
     6
100
AcDbLine
 10
304.1444120187783
 20
9.737873678880866
 30
0.0
 11
304.1444120187783
 21
12.28787367793086
 31
0.0
  0
LINE
  5
C6
330
2
100
AcDbEntity
  8
0
  6
Continuous
 62
     6
100
AcDbLine
 10
304.1444120187783
 20
32.19047557699087
 30
0.0
 11
304.1444120187783
 21
34.74047557731086
 31
0.0
  0
LINE
  5
C7
330
2
100
AcDbEntity
  8
0
  6
Continuous
 62
     6
100
AcDbLine
 10
304.3444120188283
 20
34.54047557726087
 30
0.0
 11
304.3444120188283
 21
32.39047557704086
 31
0.0
  0
LINE
  5
C8
330
2
100
AcDbEntity
  8
0
  6
Continuous
 62
     6
100
AcDbLine
 10
304.3444120188283
 20
12.08787367788086
 30
0.0
 11
304.3444120188283
 21
9.937873678930856
 31
0.0
  0
LINE
  5
C9
330
2
100
AcDbEntity
  8
0
  6
Continuous
 62
     4
100
AcDbLine
 10
304.4259504193783
 20
12.70043627927086
 30
0.0
 11
304.4259504193783
 21
13.40043636898086
 31
0.0
  0
LINE
  5
CA
330
2
100
AcDbEntity
  8
0
  6
Continuous
 62
     6
100
AcDbLine
 10
304.4444120182183
 20
34.84047557797088
 30
0.0
 11
304.4444120182183
 21
32.09047557760086
 31
0.0
  0
LINE
  5
CB
330
2
100
AcDbEntity
  8
0
  6
Continuous
 62
     6
100
AcDbLine
 10
304.4444120182183
 20
12.38787367859086
 30
0.0
 11
304.4444120182183
 21
9.637873678220866
 31
0.0
  0
LINE
  5
CC
330
2
100
AcDbEntity
  8
0
  6
Continuous
 62
     7
100
AcDbLine
 10
304.4694120190183
 20
16.09047557741087
 30
0.0
 11
304.4694120190183
 21
18.59047557740086
 31
0.0
  0
LINE
  5
CD
330
2
100
AcDbEntity
  8
0
  6
Continuous
 62
     1
100
AcDbLine
 10
304.5194120180783
 20
27.64047557744087
 30
0.0
 11
304.5194120180783
 21
26.64047557719087
 31
0.0
  0
LINE
  5
CE
330
2
100
AcDbEntity
  8
0
  6
Continuous
 62
     4
100
AcDbLine
 10
305.1259504189183
 20
13.40043510152085
 30
0.0
 11
305.1259504189183
 21
12.70043627927086
 31
0.0
  0
LINE
  5
CF
330
2
100
AcDbEntity
  8
0
  6
Continuous
 62
     7
100
AcDbLine
 10
305.2194120188883
 20
11.04047053901086
 30
0.0
 11
305.2194120188883
 21
12.13787367821086
 31
0.0
  0
LINE
  5
D0
330
2
100
AcDbEntity
  8
0
  6
Continuous
 62
     7
100
AcDbLine
 10
305.8194120190383
 20
11.04047053901086
 30
0.0
 11
305.8194120190383
 21
9.839509323970872
 31
0.0
  0
LINE
  5
D1
330
2
100
AcDbEntity
  8
0
  6
Continuous
 62
     7
100
AcDbLine
 10
305.8694120180983
 20
18.59047557740086
 30
0.0
 11
305.8694120180983
 21
16.09047557741087
 31
0.0
  0
LINE
  5
D2
330
2
100
AcDbEntity
  8
0
  6
Continuous
 62
     7
100
AcDbLine
 10
306.0694120181483
 20
25.65946880286086
 30
0.0
 11
306.0694120181483
 21
13.73787367861087
 31
0.0
  0
LINE
  5
D3
102
{ACAD_REACTORS
330
1AF
102
}
330
2
100
AcDbEntity
  8
0
  6
Continuous
 62
     7
100
AcDbLine
 10
306.0694120181483
 20
28.41627855339087
 30
0.0
 11
306.0694120181483
 21
33.59047557734085
 31
0.0
  0
LINE
  5
D4
330
2
100
AcDbEntity
  8
0
  6
Continuous
 62
     7
100
AcDbLine
 10
306.0694120181483
 20
13.73787367861087
 30
0.0
 11
305.8194120190383
 21
12.73787367836087
 31
0.0
  0
LINE
  5
D5
330
2
100
AcDbEntity
  8
0
  6
Continuous
 62
     1
100
AcDbLine
 10
304.5194120180783
 20
26.64047557719087
 30
0.0
 11
303.7194120191483
 21
26.64047557719087
 31
0.0
  0
LINE
  5
D6
330
2
100
AcDbEntity
  8
0
  6
Continuous
 62
     1
100
AcDbLine
 10
303.3194120190483
 20
26.64047557719087
 30
0.0
 11
302.5194120188483
 21
26.64047557719087
 31
0.0
  0
LINE
  5
D7
330
2
100
AcDbEntity
  8
0
  6
Continuous
 62
     1
100
AcDbLine
 10
302.5194120188483
 20
27.64047557744087
 30
0.0
 11
303.3194120190483
 21
27.64047557744087
 31
0.0
  0
LINE
  5
D8
330
2
100
AcDbEntity
  8
0
  6
Continuous
 62
     1
100
AcDbLine
 10
303.7194120191483
 20
27.64047557744087
 30
0.0
 11
304.5194120180783
 21
27.64047557744087
 31
0.0
  0
LINE
  5
D9
330
2
100
AcDbEntity
  8
0
  6
Continuous
 62
     6
100
AcDbLine
 10
304.4444120182183
 20
32.09047557760086
 30
0.0
 11
302.5944120187083
 21
32.09047557760086
 31
0.0
  0
LINE
  5
DA
330
2
100
AcDbEntity
  8
0
  6
Continuous
 62
     6
100
AcDbLine
 10
304.1444120187783
 20
32.19047557699087
 30
0.0
 11
302.8944120181483
 21
32.19047557699087
 31
0.0
  0
LINE
  5
DB
330
2
100
AcDbEntity
  8
0
  6
Continuous
 62
     6
100
AcDbLine
 10
302.6944120180983
 20
32.39047557704086
 30
0.0
 11
304.3444120188283
 21
32.39047557704086
 31
0.0
  0
LINE
  5
DC
330
2
100
AcDbEntity
  8
0
  6
Continuous
 62
     6
100
AcDbLine
 10
304.3444120188283
 20
34.54047557726087
 30
0.0
 11
302.6944120180983
 21
34.54047557726087
 31
0.0
  0
LINE
  5
DD
330
2
100
AcDbEntity
  8
0
  6
Continuous
 62
     6
100
AcDbLine
 10
302.8944120181483
 20
34.74047557731086
 30
0.0
 11
304.1444120187783
 21
34.74047557731086
 31
0.0
  0
LINE
  5
DE
330
2
100
AcDbEntity
  8
0
  6
Continuous
 62
     6
100
AcDbLine
 10
302.5944120187083
 20
34.84047557797088
 30
0.0
 11
304.4444120182183
 21
34.84047557797088
 31
0.0
  0
LINE
  5
DF
330
2
100
AcDbEntity
  8
0
  6
Continuous
 62
     7
100
AcDbLine
 10
304.5694120184084
 20
35.09047557708085
 30
0.0
 11
302.4694120185183
 21
35.09047557708085
 31
0.0
  0
LINE
  5
E0
330
2
100
AcDbEntity
  8
0
  6
Continuous
 62
     7
100
AcDbLine
 10
332.2528305224283
 20
8.769795776330866
 30
0.0
 11
333.0528305226283
 21
8.769795776330866
 31
0.0
  0
LINE
  5
E1
330
2
100
AcDbEntity
  8
0
  6
Continuous
 62
     7
100
AcDbLine
 10
333.0528305226283
 20
8.862056268720863
 30
0.0
 11
332.2528305224283
 21
8.862056262370863
 31
0.0
  0
LINE
  5
E2
330
2
100
AcDbEntity
  8
0
  6
Continuous
 62
     7
100
AcDbLine
 10
331.9528305217184
 20
9.637873678220866
 30
0.0
 11
332.2528305224283
 21
9.637873678220866
 31
0.0
  0
LINE
  5
E3
330
2
100
AcDbEntity
  8
0
  6
Continuous
 62
     7
100
AcDbLine
 10
331.9528305217184
 20
9.737873678880866
 30
0.0
 11
331.4528305222284
 21
9.737873678880866
 31
0.0
  0
LINE
  5
E4
330
2
100
AcDbEntity
  8
0
  6
Continuous
 62
     7
100
AcDbLine
 10
332.2528305224283
 20
9.839387021700872
 30
0.0
 11
333.0528305226283
 21
9.839387021700872
 31
0.0
  0
LINE
  5
E5
330
2
100
AcDbEntity
  8
0
  6
Continuous
 62
     7
100
AcDbLine
 10
331.2528305221783
 20
9.937873678930856
 30
0.0
 11
331.9528305217184
 21
9.937873678930856
 31
0.0
  0
LINE
  5
E6
330
2
100
AcDbEntity
  8
0
  6
Continuous
 62
     7
100
AcDbLine
 10
332.2528305224283
 20
11.04047053901086
 30
0.0
 11
333.0528305226283
 21
11.04047053901086
 31
0.0
  0
LINE
  5
E7
330
2
100
AcDbEntity
  8
0
  6
Continuous
 62
     7
100
AcDbLine
 10
331.9528305217184
 20
12.08787367788086
 30
0.0
 11
331.2528305221783
 21
12.08787367788086
 31
0.0
  0
LINE
  5
E8
330
2
100
AcDbEntity
  8
0
  6
Continuous
 62
     7
100
AcDbLine
 10
333.0528305226283
 20
12.13787367821086
 30
0.0
 11
332.2528305224283
 21
12.13787367821086
 31
0.0
  0
LINE
  5
E9
330
2
100
AcDbEntity
  8
0
  6
Continuous
 62
     7
100
AcDbLine
 10
331.4528305222284
 20
12.28787367793086
 30
0.0
 11
331.9528305217184
 21
12.28787367793086
 31
0.0
  0
LINE
  5
EA
330
2
100
AcDbEntity
  8
0
  6
Continuous
 62
     7
100
AcDbLine
 10
331.9528305217184
 20
12.38787367859086
 30
0.0
 11
332.2528305224283
 21
12.38787367859086
 31
0.0
  0
LINE
  5
EB
330
2
100
AcDbEntity
  8
0
  6
Continuous
 62
     7
100
AcDbLine
 10
332.2528305224283
 20
12.73787367836087
 30
0.0
 11
333.0528305226283
 21
12.73787367836087
 31
0.0
  0
LINE
  5
EC
330
2
100
AcDbEntity
  8
0
  6
Continuous
 62
     7
100
AcDbLine
 10
332.2528305224283
 20
13.73787367861087
 30
0.0
 11
333.0528305226283
 21
13.73787367861087
 31
0.0
  0
LINE
  5
ED
330
2
100
AcDbEntity
  8
0
  6
Continuous
 62
     7
100
AcDbLine
 10
330.0528305218783
 20
29.79047557766087
 30
0.0
 11
329.9528305224884
 21
29.69047557700087
 31
0.0
  0
LINE
  5
EE
330
2
100
AcDbEntity
  8
0
  6
Continuous
 62
     7
100
AcDbLine
 10
330.8528305220783
 20
30.09047557710086
 30
0.0
 11
330.7528305226883
 21
29.99047557771087
 31
0.0
  0
LINE
  5
EF
330
2
100
AcDbEntity
  8
0
  6
Continuous
 62
     7
100
AcDbLine
 10
331.7528305216683
 20
16.09047557741087
 30
0.0
 11
332.2528305224283
 21
16.09047557741087
 31
0.0
  0
LINE
  5
F0
330
2
100
AcDbEntity
  8
0
  6
Continuous
 62
     7
100
AcDbLine
 10
331.7528305216683
 20
18.59047557740086
 30
0.0
 11
332.2528305224283
 21
18.59047557740086
 31
0.0
  0
LINE
  5
F1
330
2
100
AcDbEntity
  8
0
  6
Continuous
 62
     7
100
AcDbLine
 10
329.9528305224884
 20
29.69047557700087
 30
0.0
 11
329.9528305224884
 21
28.99047557746086
 31
0.0
  0
LINE
  5
F2
330
2
100
AcDbEntity
  8
0
  6
Continuous
 62
     7
100
AcDbLine
 10
330.0528305218783
 20
29.79047557766087
 30
0.0
 11
330.0528305218783
 21
28.89047557807085
 31
0.0
  0
LINE
  5
F3
330
2
100
AcDbEntity
  8
0
  6
Continuous
 62
     7
100
AcDbLine
 10
330.7528305226883
 20
29.99047557771087
 30
0.0
 11
330.7528305226883
 21
28.69047557802087
 31
0.0
  0
LINE
  5
F4
330
2
100
AcDbEntity
  8
0
  6
Continuous
 62
     7
100
AcDbLine
 10
330.8528305220783
 20
30.09047557710086
 30
0.0
 11
330.8528305220783
 21
28.59047557736086
 31
0.0
  0
LINE
  5
F5
330
2
100
AcDbEntity
  8
0
  6
Continuous
 62
     7
100
AcDbLine
 10
334.0528305228783
 20
21.09047557739088
 30
0.0
 11
333.0528305226283
 21
21.09047557739088
 31
0.0
  0
LINE
  5
F6
330
2
100
AcDbEntity
  8
0
  6
Continuous
 62
     7
100
AcDbLine
 10
331.2528305221783
 20
9.937873678930856
 30
0.0
 11
331.2528305221783
 21
12.08787367788086
 31
0.0
  0
LINE
  5
F7
330
2
100
AcDbEntity
  8
0
  6
Continuous
 62
     7
100
AcDbLine
 10
331.2528305221783
 20
32.39047557704086
 30
0.0
 11
331.2528305221783
 21
34.54047557726087
 31
0.0
  0
LINE
  5
F8
330
2
100
AcDbEntity
  8
0
  6
Continuous
 62
     7
100
AcDbLine
 10
331.4528305222284
 20
34.74047557731086
 30
0.0
 11
331.4528305222284
 21
32.19047557699087
 31
0.0
  0
LINE
  5
F9
330
2
100
AcDbEntity
  8
0
  6
Continuous
 62
     7
100
AcDbLine
 10
331.4528305222284
 20
12.28787367793086
 30
0.0
 11
331.4528305222284
 21
9.737873678880866
 31
0.0
  0
LINE
  5
FA
330
2
100
AcDbEntity
  8
0
  6
Continuous
 62
     7
100
AcDbLine
 10
331.7528305216683
 20
27.64047557744087
 30
0.0
 11
331.7528305216683
 21
26.64047557719087
 31
0.0
  0
LINE
  5
FB
330
2
100
AcDbEntity
  8
0
  6
Continuous
 62
     7
100
AcDbLine
 10
331.7528305216683
 20
18.59047557740086
 30
0.0
 11
331.7528305216683
 21
16.09047557741087
 31
0.0
  0
LINE
  5
FC
330
2
100
AcDbEntity
  8
0
  6
Continuous
 62
     7
100
AcDbLine
 10
331.9528305217184
 20
34.84047557797088
 30
0.0
 11
331.9528305217184
 21
32.09047557760086
 31
0.0
  0
LINE
  5
FD
330
2
100
AcDbEntity
  8
0
  6
Continuous
 62
     7
100
AcDbLine
 10
331.9528305217184
 20
12.38787367859086
 30
0.0
 11
331.9528305217184
 21
9.637873678220866
 31
0.0
  0
LINE
  5
FE
330
2
100
AcDbEntity
  8
0
  6
Continuous
 62
     7
100
AcDbLine
 10
332.2528305224283
 20
8.76983750091086
 30
0.0
 11
332.2528305224283
 21
35.09047557708085
 31
0.0
  0
LINE
  5
FF
330
2
100
AcDbEntity
  8
0
  6
Continuous
 62
     7
100
AcDbLine
 10
333.0528305226283
 20
8.769837453920864
 30
0.0
 11
333.0528305226283
 21
35.09047557708085
 31
0.0
  0
LINE
  5
100
330
2
100
AcDbEntity
  8
0
  6
Continuous
 62
     7
100
AcDbLine
 10
334.0528305228783
 20
25.09047557712086
 30
0.0
 11
334.0528305228783
 21
21.09047557739088
 31
0.0
  0
LINE
  5
101
330
2
100
AcDbEntity
  8
0
  6
Continuous
 62
     7
100
AcDbLine
 10
334.0528305228783
 20
25.09047557712086
 30
0.0
 11
333.0528305226283
 21
25.09047557712086
 31
0.0
  0
LINE
  5
102
330
2
100
AcDbEntity
  8
0
  6
Continuous
 62
     7
100
AcDbLine
 10
330.0528305218783
 20
28.89047557807085
 30
0.0
 11
329.9528305224884
 21
28.99047557746086
 31
0.0
  0
LINE
  5
103
330
2
100
AcDbEntity
  8
0
  6
Continuous
 62
     7
100
AcDbLine
 10
333.0528305226283
 20
25.65946880286086
 30
0.0
 11
332.2528305224283
 21
25.65946880286086
 31
0.0
  0
LINE
  5
104
330
2
100
AcDbEntity
  8
0
  6
Continuous
 62
     7
100
AcDbLine
 10
332.2528305224283
 20
26.13478082912086
 30
0.0
 11
333.0528305226283
 21
26.13478082912086
 31
0.0
  0
LINE
  5
105
330
2
100
AcDbEntity
  8
0
  6
Continuous
 62
     7
100
AcDbLine
 10
330.8528305220783
 20
28.59047557736086
 30
0.0
 11
330.7528305226883
 21
28.69047557802087
 31
0.0
  0
LINE
  5
106
330
2
100
AcDbEntity
  8
0
  6
Continuous
 62
     7
100
AcDbLine
 10
331.7528305216683
 20
26.64047557719087
 30
0.0
 11
332.2528305224283
 21
26.64047557719087
 31
0.0
  0
LINE
  5
107
330
2
100
AcDbEntity
  8
0
  6
Continuous
 62
     7
100
AcDbLine
 10
331.7528305216683
 20
27.64047557744087
 30
0.0
 11
332.2528305224283
 21
27.64047557744087
 31
0.0
  0
LINE
  5
108
330
2
100
AcDbEntity
  8
0
  6
Continuous
 62
     7
100
AcDbLine
 10
333.0528305226283
 20
27.94096652713087
 30
0.0
 11
332.2528305224283
 21
27.94096652713087
 31
0.0
  0
LINE
  5
109
330
2
100
AcDbEntity
  8
0
  6
Continuous
 62
     7
100
AcDbLine
 10
332.2528305224283
 20
28.41627855339087
 30
0.0
 11
333.0528305226283
 21
28.41627855339087
 31
0.0
  0
LINE
  5
10A
330
2
100
AcDbEntity
  8
0
  6
Continuous
 62
     7
100
AcDbLine
 10
332.2528305224283
 20
28.59047557736086
 30
0.0
 11
330.8528305220783
 21
28.59047557736086
 31
0.0
  0
LINE
  5
10B
330
2
100
AcDbEntity
  8
0
  6
Continuous
 62
     7
100
AcDbLine
 10
330.7528305226883
 20
28.89047557807085
 30
0.0
 11
330.0528305218783
 21
28.89047557807085
 31
0.0
  0
LINE
  5
10C
330
2
100
AcDbEntity
  8
0
  6
Continuous
 62
     7
100
AcDbLine
 10
330.7528305226883
 20
29.79047557766087
 30
0.0
 11
330.0528305218783
 21
29.79047557766087
 31
0.0
  0
LINE
  5
10D
330
2
100
AcDbEntity
  8
0
  6
Continuous
 62
     7
100
AcDbLine
 10
332.2528305224283
 20
30.09047557710086
 30
0.0
 11
330.8528305220783
 21
30.09047557710086
 31
0.0
  0
LINE
  5
10E
330
2
100
AcDbEntity
  8
0
  6
Continuous
 62
     7
100
AcDbLine
 10
331.9528305217184
 20
32.09047557760086
 30
0.0
 11
332.2528305224283
 21
32.09047557760086
 31
0.0
  0
LINE
  5
10F
330
2
100
AcDbEntity
  8
0
  6
Continuous
 62
     7
100
AcDbLine
 10
331.9528305217184
 20
32.19047557699087
 30
0.0
 11
331.4528305222284
 21
32.19047557699087
 31
0.0
  0
LINE
  5
110
330
2
100
AcDbEntity
  8
0
  6
Continuous
 62
     7
100
AcDbLine
 10
331.2528305221783
 20
32.39047557704086
 30
0.0
 11
331.9528305217184
 21
32.39047557704086
 31
0.0
  0
LINE
  5
111
330
2
100
AcDbEntity
  8
0
  6
Continuous
 62
     7
100
AcDbLine
 10
333.0528305226283
 20
33.59047557734085
 30
0.0
 11
332.2528305224283
 21
33.59047557734085
 31
0.0
  0
LINE
  5
112
330
2
100
AcDbEntity
  8
0
  6
Continuous
 62
     7
100
AcDbLine
 10
331.9528305217184
 20
34.54047557726087
 30
0.0
 11
331.2528305221783
 21
34.54047557726087
 31
0.0
  0
LINE
  5
113
330
2
100
AcDbEntity
  8
0
  6
Continuous
 62
     7
100
AcDbLine
 10
331.4528305222284
 20
34.74047557731086
 30
0.0
 11
331.9528305217184
 21
34.74047557731086
 31
0.0
  0
LINE
  5
114
330
2
100
AcDbEntity
  8
0
  6
Continuous
 62
     7
100
AcDbLine
 10
331.9528305217184
 20
34.84047557797088
 30
0.0
 11
332.2528305224283
 21
34.84047557797088
 31
0.0
  0
LINE
  5
115
102
{ACAD_REACTORS
330
19E
102
}
330
2
100
AcDbEntity
  8
0
  6
Continuous
 62
     7
100
AcDbLine
 10
332.2528305224283
 20
35.09047557708085
 30
0.0
 11
333.0528305226283
 21
35.09047557708085
 31
0.0
  0
LINE
  5
116
330
2
100
AcDbEntity
  8
0
  6
Continuous
 62
     7
100
AcDbLine
 10
300.9694120187783
 20
47.76802734918087
 30
0.0
 11
300.9694120187783
 21
48.56802734938085
 31
0.0
  0
LINE
  5
117
330
2
100
AcDbEntity
  8
0
  6
Continuous
 62
     7
100
AcDbLine
 10
301.5194120185983
 20
49.56802734963088
 30
0.0
 11
301.5194120185983
 21
48.56802734938085
 31
0.0
  0
LINE
  5
118
330
2
100
AcDbEntity
  8
0
  6
Continuous
 62
     7
100
AcDbLine
 10
303.1694161976283
 20
45.46802734924085
 30
0.0
 11
303.8694078405683
 21
45.46802734924085
 31
0.0
  0
LINE
  5
119
330
2
100
AcDbEntity
  8
0
  6
Continuous
 62
     7
100
AcDbLine
 10
303.0694120186684
 20
45.56802734990085
 30
0.0
 11
303.9694120182583
 21
45.56802734990085
 31
0.0
  0
LINE
  5
11A
330
2
100
AcDbEntity
  8
0
  6
Continuous
 62
     7
100
AcDbLine
 10
303.1694120180583
 20
45.46802734924085
 30
0.0
 11
303.0694120186684
 21
45.56802734990085
 31
0.0
  0
LINE
  5
11B
330
2
100
AcDbEntity
  8
0
  6
Continuous
 62
     7
100
AcDbLine
 10
302.8694120186183
 20
46.26802734944087
 30
0.0
 11
302.7694120192283
 21
46.36802735010085
 31
0.0
  0
LINE
  5
11C
330
2
100
AcDbEntity
  8
0
  6
Continuous
 62
     7
100
AcDbLine
 10
302.8694157422583
 20
46.26802734944087
 30
0.0
 11
304.1694082946683
 21
46.26802734944087
 31
0.0
  0
LINE
  5
11D
330
2
100
AcDbEntity
  8
0
  6
Continuous
 62
     7
100
AcDbLine
 10
302.7694120192283
 20
46.36802735010085
 30
0.0
 11
304.2694120189683
 21
46.36802735010085
 31
0.0
  0
LINE
  5
11E
330
2
100
AcDbEntity
  8
0
  6
Continuous
 62
     7
100
AcDbLine
 10
302.4694120185183
 20
48.56802734938085
 30
0.0
 11
302.4694120185183
 21
47.76802734918087
 31
0.0
  0
LINE
  5
11F
330
2
100
AcDbEntity
  8
0
  6
Continuous
 62
     7
100
AcDbLine
 10
302.5194120188483
 20
47.26802734969084
 30
0.0
 11
302.5194120188483
 21
47.76802734918087
 31
0.0
  0
LINE
  5
120
330
2
100
AcDbEntity
  8
0
  6
Continuous
 62
     7
100
AcDbLine
 10
302.5944120187083
 20
47.46802734974084
 30
0.0
 11
302.5944120187083
 21
47.76802734918087
 31
0.0
  0
LINE
  5
121
330
2
100
AcDbEntity
  8
0
  6
Continuous
 62
     7
100
AcDbLine
 10
302.6944120180983
 20
46.96802734898087
 30
0.0
 11
302.6944120180983
 21
47.46802734974084
 31
0.0
  0
LINE
  5
122
330
2
100
AcDbEntity
  8
0
  6
Continuous
 62
     7
100
AcDbLine
 10
302.7694120192283
 20
46.81366690078085
 30
0.0
 11
302.7694120192283
 21
46.36802735010085
 31
0.0
  0
LINE
  5
123
330
2
100
AcDbEntity
  8
0
  6
Continuous
 62
     7
100
AcDbLine
 10
304.1444120187783
 20
46.76802735020086
 30
0.0
 11
302.8944120181483
 21
46.76802735020086
 31
0.0
  0
LINE
  5
124
330
2
100
AcDbEntity
  8
0
  6
Continuous
 62
     7
100
AcDbLine
 10
302.8944120181483
 20
47.46802734974084
 30
0.0
 11
302.8944120181483
 21
46.76802735020086
 31
0.0
  0
LINE
  5
125
330
2
100
AcDbEntity
  8
0
  6
Continuous
 62
     7
100
AcDbLine
 10
303.0694120186684
 20
46.26802734944087
 30
0.0
 11
303.0694120186684
 21
45.56802734990085
 31
0.0
  0
LINE
  5
126
330
2
100
AcDbEntity
  8
0
  6
Continuous
 62
     7
100
AcDbLine
 10
302.6944120180983
 20
46.96802734898087
 30
0.0
 11
304.3444120188283
 21
46.96802734898087
 31
0.0
  0
LINE
  5
127
330
2
100
AcDbEntity
  8
0
  6
Continuous
 62
     7
100
AcDbLine
 10
302.5194120188483
 20
47.26802734969084
 30
0.0
 11
302.6944120180983
 21
47.26802734969084
 31
0.0
  0
LINE
  5
128
330
2
100
AcDbEntity
  8
0
  6
Continuous
 62
     7
100
AcDbLine
 10
304.3444120188283
 20
47.26802734969084
 30
0.0
 11
305.8694120180983
 21
47.26802734969084
 31
0.0
  0
LINE
  5
129
330
2
100
AcDbEntity
  8
0
  6
Continuous
 62
     7
100
AcDbLine
 10
302.5944120187083
 20
47.46802734974084
 30
0.0
 11
304.4444120182183
 21
47.46802734974084
 31
0.0
  0
LINE
  5
12A
330
2
100
AcDbEntity
  8
0
  6
Continuous
 62
     7
100
AcDbLine
 10
303.9694120182583
 20
46.26802734944087
 30
0.0
 11
303.9694120182583
 21
45.56802734990085
 31
0.0
  0
LINE
  5
12B
330
2
100
AcDbEntity
  8
0
  6
Continuous
 62
     7
100
AcDbLine
 10
300.9694120187783
 20
47.76802734918087
 30
0.0
 11
306.0694120181483
 21
47.76802734918087
 31
0.0
  0
LINE
  5
12C
330
2
100
AcDbEntity
  8
0
  6
Continuous
 62
     7
100
AcDbLine
 10
304.1444120187783
 20
46.76802735020086
 30
0.0
 11
304.1444120187783
 21
47.46802734974084
 31
0.0
  0
LINE
  5
12D
330
2
100
AcDbEntity
  8
0
  6
Continuous
 62
     7
100
AcDbLine
 10
304.2694120189683
 20
46.81366690078085
 30
0.0
 11
304.2694120189683
 21
46.36802735010085
 31
0.0
  0
LINE
  5
12E
330
2
100
AcDbEntity
  8
0
  6
Continuous
 62
     7
100
AcDbLine
 10
304.3444120188283
 20
47.46802734974084
 30
0.0
 11
304.3444120188283
 21
46.96802734898087
 31
0.0
  0
LINE
  5
12F
330
2
100
AcDbEntity
  8
0
  6
Continuous
 62
     7
100
AcDbLine
 10
304.4444120182183
 20
47.46802734974084
 30
0.0
 11
304.4444120182183
 21
47.76802734918087
 31
0.0
  0
LINE
  5
130
330
2
100
AcDbEntity
  8
0
  6
Continuous
 62
     7
100
AcDbLine
 10
304.5194120180783
 20
47.26802734969084
 30
0.0
 11
304.5194120180783
 21
47.76802734918087
 31
0.0
  0
LINE
  5
131
330
2
100
AcDbEntity
  8
0
  6
Continuous
 62
     7
100
AcDbLine
 10
304.5694120184084
 20
47.76802734918087
 30
0.0
 11
304.5694120184084
 21
48.56802734938085
 31
0.0
  0
LINE
  5
132
330
2
100
AcDbEntity
  8
0
  6
Continuous
 62
     7
100
AcDbLine
 10
306.0694120181483
 20
48.56802734938085
 30
0.0
 11
300.9694120187783
 21
48.56802734938085
 31
0.0
  0
LINE
  5
133
330
2
100
AcDbEntity
  8
0
  6
Continuous
 62
     7
100
AcDbLine
 10
304.1694120183083
 20
46.26802734944087
 30
0.0
 11
304.2694120189683
 21
46.36802735010085
 31
0.0
  0
LINE
  5
134
330
2
100
AcDbEntity
  8
0
  6
Continuous
 62
     7
100
AcDbLine
 10
303.8694120188683
 20
45.46802734924085
 30
0.0
 11
303.9694120182583
 21
45.56802734990085
 31
0.0
  0
LINE
  5
135
330
2
100
AcDbEntity
  8
0
  6
Continuous
 62
     7
100
AcDbLine
 10
305.5194120183283
 20
49.56802734963088
 30
0.0
 11
305.5194120183283
 21
48.56802734938085
 31
0.0
  0
LINE
  5
136
330
2
100
AcDbEntity
  8
0
  6
Continuous
 62
     7
100
AcDbLine
 10
301.5194120185983
 20
49.56802734963088
 30
0.0
 11
305.5194120183283
 21
49.56802734963088
 31
0.0
  0
LINE
  5
137
330
2
100
AcDbEntity
  8
0
  6
Continuous
 62
     7
100
AcDbLine
 10
305.8694120180983
 20
47.26802734969084
 30
0.0
 11
305.8694120180983
 21
47.76802734918087
 31
0.0
  0
LINE
  5
138
330
2
100
AcDbEntity
  8
0
  6
Continuous
 62
     7
100
AcDbLine
 10
306.0694120181483
 20
48.56802734938085
 30
0.0
 11
306.0694120181483
 21
47.76802734918087
 31
0.0
  0
LINE
  5
139
330
2
100
AcDbEntity
  8
0
  6
Continuous
 62
     7
100
AcDbLine
 10
300.9694120187783
 20
-9.213296842629132
 30
0.0
 11
300.9694120187783
 21
-10.01329684282913
 31
0.0
  0
LINE
  5
13A
330
2
100
AcDbEntity
  8
0
  6
Continuous
 62
     7
100
AcDbLine
 10
301.2194120191583
 20
-10.01329684282913
 30
0.0
 11
301.2194120191583
 21
-9.213296842629132
 31
0.0
  0
LINE
  5
13B
330
2
100
AcDbEntity
  8
0
  6
Continuous
 62
     7
100
AcDbLine
 10
301.5194120185983
 20
-11.01329684180913
 30
0.0
 11
301.5194120185983
 21
-10.01329684282913
 31
0.0
  0
LINE
  5
13C
330
2
100
AcDbEntity
  8
0
  6
Continuous
 62
     7
100
AcDbLine
 10
305.5194120183283
 20
-11.01329684180913
 30
0.0
 11
301.5194120185983
 21
-11.01329684180913
 31
0.0
  0
LINE
  5
13D
330
2
100
AcDbEntity
  8
0
  6
Continuous
 62
     7
100
AcDbLine
 10
303.1694120180583
 20
-6.913296842689142
 30
0.0
 11
303.0694120186684
 21
-7.013296842079133
 31
0.0
  0
LINE
  5
13E
330
2
100
AcDbEntity
  8
0
  6
Continuous
 62
     7
100
AcDbLine
 10
302.0422263907983
 20
-9.213296842629132
 30
0.0
 11
302.0422263907983
 21
-10.01329684282913
 31
0.0
  0
LINE
  5
13F
330
2
100
AcDbEntity
  8
0
  6
Continuous
 62
     7
100
AcDbLine
 10
302.8694120186183
 20
-7.713296841619132
 30
0.0
 11
302.7694120192283
 21
-7.813296842279129
 31
0.0
  0
LINE
  5
140
330
2
100
AcDbEntity
  8
0
  6
Continuous
 62
     7
100
AcDbLine
 10
302.5194120188483
 20
-8.713296841869137
 30
0.0
 11
302.5194120188483
 21
-9.213296842629132
 31
0.0
  0
LINE
  5
141
330
2
100
AcDbEntity
  8
0
  6
Continuous
 62
     7
100
AcDbLine
 10
302.5944120187083
 20
-8.913296841919132
 30
0.0
 11
302.5944120187083
 21
-9.213296842629132
 31
0.0
  0
LINE
  5
142
330
2
100
AcDbEntity
  8
0
  6
Continuous
 62
     7
100
AcDbLine
 10
300.9694120187783
 20
-10.01329684282913
 30
0.0
 11
306.0694120181483
 21
-10.01329684282913
 31
0.0
  0
LINE
  5
143
330
2
100
AcDbEntity
  8
0
  6
Continuous
 62
     7
100
AcDbLine
 10
302.6944120180983
 20
-8.913296841919132
 30
0.0
 11
302.6944120180983
 21
-8.413296842429131
 31
0.0
  0
LINE
  5
144
330
2
100
AcDbEntity
  8
0
  6
Continuous
 62
     7
100
AcDbLine
 10
302.7413259882783
 20
-9.213296842629132
 30
0.0
 11
302.7413259882783
 21
-10.01329684282913
 31
0.0
  0
LINE
  5
145
330
2
100
AcDbEntity
  8
0
  6
Continuous
 62
     7
100
AcDbLine
 10
302.7694120192283
 20
-8.258936392959133
 30
0.0
 11
302.7694120192283
 21
-7.813296842279129
 31
0.0
  0
LINE
  5
146
330
2
100
AcDbEntity
  8
0
  6
Continuous
 62
     7
100
AcDbLine
 10
302.8944120181483
 20
-8.213296842379129
 30
0.0
 11
302.8944120181483
 21
-8.913296841919132
 31
0.0
  0
LINE
  5
147
330
2
100
AcDbEntity
  8
0
  6
Continuous
 62
     7
100
AcDbLine
 10
303.0694120186684
 20
-7.713296841619132
 30
0.0
 11
303.0694120186684
 21
-7.013296842079133
 31
0.0
  0
LINE
  5
148
330
2
100
AcDbEntity
  8
0
  6
Continuous
 62
     7
100
AcDbLine
 10
306.0694120181483
 20
-9.213296842629132
 30
0.0
 11
300.9694120187783
 21
-9.213296842629132
 31
0.0
  0
LINE
  5
149
330
2
100
AcDbEntity
  8
0
  6
Continuous
 62
     7
100
AcDbLine
 10
304.4444120182183
 20
-8.913296841919132
 30
0.0
 11
302.5944120187083
 21
-8.913296841919132
 31
0.0
  0
LINE
  5
14A
330
2
100
AcDbEntity
  8
0
  6
Continuous
 62
     7
100
AcDbLine
 10
303.9694120182583
 20
-7.713296841619132
 30
0.0
 11
303.9694120182583
 21
-7.013296842079133
 31
0.0
  0
LINE
  5
14B
330
2
100
AcDbEntity
  8
0
  6
Continuous
 62
     7
100
AcDbLine
 10
305.8694120180983
 20
-8.713296841869137
 30
0.0
 11
304.3444120188283
 21
-8.713296841869137
 31
0.0
  0
LINE
  5
14C
330
2
100
AcDbEntity
  8
0
  6
Continuous
 62
     7
100
AcDbLine
 10
302.6944120180983
 20
-8.713296841869137
 30
0.0
 11
302.5194120188483
 21
-8.713296841869137
 31
0.0
  0
LINE
  5
14D
330
2
100
AcDbEntity
  8
0
  6
Continuous
 62
     7
100
AcDbLine
 10
304.1444120187783
 20
-8.913296841919132
 30
0.0
 11
304.1444120187783
 21
-8.213296842379129
 31
0.0
  0
LINE
  5
14E
330
2
100
AcDbEntity
  8
0
  6
Continuous
 62
     7
100
AcDbLine
 10
304.3444120188283
 20
-8.413296842429131
 30
0.0
 11
302.6944120180983
 21
-8.413296842429131
 31
0.0
  0
LINE
  5
14F
330
2
100
AcDbEntity
  8
0
  6
Continuous
 62
     7
100
AcDbLine
 10
304.2694120189683
 20
-8.258936392959133
 30
0.0
 11
304.2694120189683
 21
-7.813296842279129
 31
0.0
  0
LINE
  5
150
330
2
100
AcDbEntity
  8
0
  6
Continuous
 62
     7
100
AcDbLine
 10
304.2974980499183
 20
-10.01329684282913
 30
0.0
 11
304.2974980499183
 21
-9.213296842629132
 31
0.0
  0
LINE
  5
151
330
2
100
AcDbEntity
  8
0
  6
Continuous
 62
     7
100
AcDbLine
 10
304.3444120188283
 20
-8.413296842429131
 30
0.0
 11
304.3444120188283
 21
-8.913296841919132
 31
0.0
  0
LINE
  5
152
330
2
100
AcDbEntity
  8
0
  6
Continuous
 62
     7
100
AcDbLine
 10
302.8944120181483
 20
-8.213296842379129
 30
0.0
 11
304.1444120187783
 21
-8.213296842379129
 31
0.0
  0
LINE
  5
153
330
2
100
AcDbEntity
  8
0
  6
Continuous
 62
     7
100
AcDbLine
 10
304.4444120182183
 20
-8.913296841919132
 30
0.0
 11
304.4444120182183
 21
-9.213296842629132
 31
0.0
  0
LINE
  5
154
330
2
100
AcDbEntity
  8
0
  6
Continuous
 62
     7
100
AcDbLine
 10
304.4694120190183
 20
-8.713296841869137
 30
0.0
 11
304.4694120190183
 21
-9.213296842629132
 31
0.0
  0
LINE
  5
155
330
2
100
AcDbEntity
  8
0
  6
Continuous
 62
     7
100
AcDbLine
 10
304.2694120189683
 20
-7.813296842279129
 30
0.0
 11
302.7694120192283
 21
-7.813296842279129
 31
0.0
  0
LINE
  5
156
330
2
100
AcDbEntity
  8
0
  6
Continuous
 62
     7
100
AcDbLine
 10
304.1694082946683
 20
-7.713296841619132
 30
0.0
 11
302.8694157422583
 21
-7.713296841619132
 31
0.0
  0
LINE
  5
157
330
2
100
AcDbEntity
  8
0
  6
Continuous
 62
     7
100
AcDbLine
 10
304.9965976562883
 20
-10.01329684282913
 30
0.0
 11
304.9965976473983
 21
-9.213296842629132
 31
0.0
  0
LINE
  5
158
330
2
100
AcDbEntity
  8
0
  6
Continuous
 62
     7
100
AcDbLine
 10
304.1694120183083
 20
-7.713296841619132
 30
0.0
 11
304.2694120189683
 21
-7.813296842279129
 31
0.0
  0
LINE
  5
159
330
2
100
AcDbEntity
  8
0
  6
Continuous
 62
     7
100
AcDbLine
 10
303.8694120188683
 20
-6.913296842689142
 30
0.0
 11
303.9694120182583
 21
-7.013296842079133
 31
0.0
  0
LINE
  5
15A
330
2
100
AcDbEntity
  8
0
  6
Continuous
 62
     7
100
AcDbLine
 10
303.9694120182583
 20
-7.013296842079133
 30
0.0
 11
303.0694120186684
 21
-7.013296842079133
 31
0.0
  0
LINE
  5
15B
330
2
100
AcDbEntity
  8
0
  6
Continuous
 62
     7
100
AcDbLine
 10
305.5194120183283
 20
-11.01329684180913
 30
0.0
 11
305.5194120183283
 21
-10.01329684282913
 31
0.0
  0
LINE
  5
15C
330
2
100
AcDbEntity
  8
0
  6
Continuous
 62
     7
100
AcDbLine
 10
303.8694078405683
 20
-6.913296842689142
 30
0.0
 11
303.1694161976283
 21
-6.913296842689142
 31
0.0
  0
LINE
  5
15D
330
2
100
AcDbEntity
  8
0
  6
Continuous
 62
     7
100
AcDbLine
 10
305.8194120190383
 20
-9.213296842629132
 30
0.0
 11
305.8194120190383
 21
-10.01329684282913
 31
0.0
  0
LINE
  5
15E
330
2
100
AcDbEntity
  8
0
  6
Continuous
 62
     7
100
AcDbLine
 10
305.8694120180983
 20
-8.713296841869137
 30
0.0
 11
305.8694120180983
 21
-9.213296842629132
 31
0.0
  0
LINE
  5
15F
330
2
100
AcDbEntity
  8
0
  6
Continuous
 62
     7
100
AcDbLine
 10
306.0694120181483
 20
-9.213296842629132
 30
0.0
 11
306.0694120181483
 21
-10.01329684282913
 31
0.0
  0
ARC
  5
160
330
2
100
AcDbEntity
  8
0
  6
Continuous
 62
     7
100
AcDbCircle
 10
241.4270137242892
 20
11.07521993037617
 30
0.0
 40
2.549954545749999
100
AcDbArc
 50
305.4062767566002
 51
334.4186755735996
  0
ARC
  5
161
330
2
100
AcDbEntity
  8
0
  6
Continuous
 62
     7
100
AcDbCircle
 10
241.4270137242892
 20
11.07521993037617
 30
0.0
 40
2.549954545749999
100
AcDbArc
 50
205.5813264844995
 51
234.5937289846997
  0
ARC
  5
162
330
2
100
AcDbEntity
  8
0
  6
Continuous
 62
     7
100
AcDbCircle
 10
240.3770137376792
 20
33.72513236604616
 30
0.0
 40
1.499999999739998
100
AcDbArc
 50
90.0
 51
180.0
  0
ARC
  5
163
330
2
100
AcDbEntity
  8
0
  6
Continuous
 62
     7
100
AcDbCircle
 10
242.4770137375692
 20
33.72513236604616
 30
0.0
 40
1.499999999739998
100
AcDbArc
 50
0.0
 51
90.0
  0
ARC
  5
164
330
2
100
AcDbEntity
  8
0
  6
Continuous
 62
     7
100
AcDbCircle
 10
238.9270137369992
 20
27.17253046746618
 30
0.0
 40
0.9499999999199998
100
AcDbArc
 50
288.0800126247994
 51
71.91998737559981
  0
ARC
  5
165
330
2
100
AcDbEntity
  8
0
  6
Continuous
 62
     7
100
AcDbCircle
 10
243.9270137382492
 20
17.87253046704616
 30
0.0
 40
0.9499999999199998
100
AcDbArc
 50
108.0800126242993
 51
251.9199873755998
  0
ARC
  5
166
330
2
100
AcDbEntity
  8
0
  6
Continuous
 62
     7
100
AcDbCircle
 10
241.4270137382592
 20
8.572530466626169
 30
0.0
 40
0.9499999999199998
100
AcDbArc
 50
35.01139778950005
 51
144.9886022101998
  0
ARC
  5
167
330
2
100
AcDbEntity
  8
0
  6
Continuous
 62
     7
100
AcDbCircle
 10
243.7270137381993
 20
12.27253046691617
 30
0.0
 40
0.6000000001500001
100
AcDbArc
 50
90.0
 51
180.0
  0
ARC
  5
168
330
2
100
AcDbEntity
  8
0
  6
Continuous
 62
     7
100
AcDbCircle
 10
239.1270137370492
 20
12.27253046691617
 30
0.0
 40
0.6000000001500001
100
AcDbArc
 50
0.0
 51
90.0
  0
ARC
  5
169
330
2
100
AcDbEntity
  8
0
  6
Continuous
 62
     7
100
AcDbCircle
 10
239.3770137374293
 20
25.79412559156617
 30
0.0
 40
0.49999999949
100
AcDbArc
 50
108.0800126236002
 51
180.0
  0
ARC
  5
16A
330
2
100
AcDbEntity
  8
0
  6
Continuous
 62
     7
100
AcDbCircle
 10
239.3770137374293
 20
28.55093534209617
 30
0.0
 40
0.49999999949
100
AcDbArc
 50
180.0
 51
251.9199873753994
  0
ARC
  5
16B
330
2
100
AcDbEntity
  8
0
  6
Continuous
 62
     7
100
AcDbCircle
 10
243.4770137378192
 20
19.25093534167617
 30
0.0
 40
0.49999999949
100
AcDbArc
 50
288.0800126247001
 51
0.0
  0
ARC
  5
16C
330
2
100
AcDbEntity
  8
0
  6
Continuous
 62
     7
100
AcDbCircle
 10
243.4770137378192
 20
16.49412559241617
 30
0.0
 40
0.49999999949
100
AcDbArc
 50
0.0
 51
71.91998737550029
  0
ARC
  5
16D
330
2
100
AcDbEntity
  8
0
  6
Continuous
 62
     7
100
AcDbCircle
 10
242.6146187315992
 20
9.404452564526179
 30
0.0
 40
0.49999999949
100
AcDbArc
 50
215.0113977772003
 51
305.4084294003001
  0
ARC
  5
16E
330
2
100
AcDbEntity
  8
0
  6
Continuous
 62
     7
100
AcDbCircle
 10
240.2394087436491
 20
9.404452564526179
 30
0.0
 40
0.49999999949
100
AcDbArc
 50
234.5915973062006
 51
324.9886022234004
  0
CIRCLE
  5
16F
330
2
100
AcDbEntity
  8
0
  6
Continuous
 62
     7
100
AcDbCircle
 10
240.5770137377292
 20
14.67513163579617
 30
0.0
 40
0.4500000004300003
  0
CIRCLE
  5
170
330
2
100
AcDbEntity
  8
0
  6
Continuous
 62
     7
100
AcDbCircle
 10
242.2770137375192
 20
14.67513163579617
 30
0.0
 40
0.4500000004300003
  0
ARC
  5
171
330
2
100
AcDbEntity
  8
0
  6
Continuous
 62
     7
100
AcDbCircle
 10
265.7044336809093
 20
32.52513236574618
 30
0.0
 40
0.20000000005
100
AcDbArc
 50
270.0
 51
0.0
  0
ARC
  5
172
330
2
100
AcDbEntity
  8
0
  6
Continuous
 62
     7
100
AcDbCircle
 10
265.7044336809093
 20
34.67513236596617
 30
0.0
 40
0.20000000005
100
AcDbArc
 50
0.0
 51
90.0
  0
ARC
  5
173
330
2
100
AcDbEntity
  8
0
  6
Continuous
 62
     7
100
AcDbCircle
 10
265.7044336809093
 20
10.07253046763616
 30
0.0
 40
0.20000000005
100
AcDbArc
 50
270.0
 51
0.0
  0
ARC
  5
174
330
2
100
AcDbEntity
  8
0
  6
Continuous
 62
     7
100
AcDbCircle
 10
265.7044336809093
 20
12.22253046658617
 30
0.0
 40
0.20000000005
100
AcDbArc
 50
0.0
 51
90.0
  0
ARC
  5
175
330
2
100
AcDbEntity
  8
0
  6
Continuous
 62
     7
100
AcDbCircle
 10
301.0194120191083
 20
17.73787367834086
 30
0.0
 40
0.9499999999199998
100
AcDbArc
 50
288.0800126244002
 51
71.91998737580012
  0
ARC
  5
176
330
2
100
AcDbEntity
  8
0
  6
Continuous
 62
     7
100
AcDbCircle
 10
301.2194120191583
 20
12.13787367821086
 30
0.0
 40
0.6000000001500001
100
AcDbArc
 50
0.0
 51
90.0
  0
ARC
  5
177
330
2
100
AcDbEntity
  8
0
  6
Continuous
 62
     7
100
AcDbCircle
 10
302.3318070244883
 20
9.269795775820872
 30
0.0
 40
0.49999999949
100
AcDbArc
 50
234.5915717969996
 51
324.9886022233005
  0
ARC
  5
178
330
2
100
AcDbEntity
  8
0
  6
Continuous
 62
     7
100
AcDbCircle
 10
301.4694120182683
 20
16.35946880371086
 30
0.0
 40
0.49999999949
100
AcDbArc
 50
108.0800126244002
 51
180.0
  0
ARC
  5
179
330
2
100
AcDbEntity
  8
0
  6
Continuous
 62
     7
100
AcDbCircle
 10
301.4694120182683
 20
19.11627855297087
 30
0.0
 40
0.49999999949
100
AcDbArc
 50
180.0
 51
251.9199873752006
  0
CIRCLE
  5
17A
330
2
100
AcDbEntity
  8
0
  6
Continuous
 62
     4
100
AcDbCircle
 10
302.6694120185683
 20
14.54047484709086
 30
0.0
 40
0.4500000004300003
  0
ARC
  5
17B
330
2
100
AcDbEntity
  8
0
  6
Continuous
 62
     6
100
AcDbCircle
 10
302.8944120181483
 20
9.937873678930856
 30
0.0
 40
0.20000000005
100
AcDbArc
 50
180.0
 51
270.0
  0
ARC
  5
17C
330
2
100
AcDbEntity
  8
0
  6
Continuous
 62
     6
100
AcDbCircle
 10
302.8944120181483
 20
12.08787367788086
 30
0.0
 40
0.20000000005
100
AcDbArc
 50
90.0
 51
180.0
  0
ARC
  5
17D
330
2
100
AcDbEntity
  8
0
  6
Continuous
 62
     7
100
AcDbCircle
 10
302.4694120185183
 20
33.59047557734085
 30
0.0
 40
1.499999999739998
100
AcDbArc
 50
90.0
 51
180.0
  0
ARC
  5
17E
330
2
100
AcDbEntity
  8
0
  6
Continuous
 62
     6
100
AcDbCircle
 10
302.8944120181483
 20
32.39047557704086
 30
0.0
 40
0.20000000005
100
AcDbArc
 50
180.0
 51
270.0
  0
ARC
  5
17F
330
2
100
AcDbEntity
  8
0
  6
Continuous
 62
     6
100
AcDbCircle
 10
302.8944120181483
 20
34.54047557726087
 30
0.0
 40
0.20000000005
100
AcDbArc
 50
90.0
 51
180.0
  0
ARC
  5
180
330
2
100
AcDbEntity
  8
0
  6
Continuous
 62
     7
100
AcDbCircle
 10
303.5194120317983
 20
10.94056314167086
 30
0.0
 40
2.549954545749999
100
AcDbArc
 50
305.4062712497997
 51
334.4186735154998
  0
ARC
  5
181
330
2
100
AcDbEntity
  8
0
  6
Continuous
 62
     7
100
AcDbCircle
 10
303.5194120317983
 20
10.94056314167086
 30
0.0
 40
2.549954545749999
100
AcDbArc
 50
205.5813244263994
 51
234.5937234782003
  0
ARC
  5
182
330
2
100
AcDbEntity
  8
0
  6
Continuous
 62
     7
100
AcDbCircle
 10
303.5194120190983
 20
8.437873677920862
 30
0.0
 40
0.9499999999199998
100
AcDbArc
 50
35.01139778950005
 51
144.9886022102998
  0
ARC
  5
183
330
2
100
AcDbEntity
  8
0
  6
Continuous
 62
     7
100
AcDbCircle
 10
305.8194120190383
 20
12.13787367821086
 30
0.0
 40
0.6000000001500001
100
AcDbArc
 50
90.0
 51
180.0
  0
ARC
  5
184
330
2
100
AcDbEntity
  8
0
  6
Continuous
 62
     7
100
AcDbCircle
 10
304.7070170124383
 20
9.269795775820872
 30
0.0
 40
0.49999999949
100
AcDbArc
 50
215.0113977772003
 51
305.4084038899995
  0
CIRCLE
  5
185
330
2
100
AcDbEntity
  8
0
  6
Continuous
 62
     4
100
AcDbCircle
 10
304.3694120183583
 20
14.54047484709086
 30
0.0
 40
0.4500000004300003
  0
CIRCLE
  5
186
330
2
100
AcDbEntity
  8
0
  6
Continuous
 62
     6
100
AcDbCircle
 10
303.5194120190983
 20
10.51787367844087
 30
0.0
 40
0.25000000038
  0
ARC
  5
187
330
2
100
AcDbEntity
  8
0
  6
Continuous
 62
     6
100
AcDbCircle
 10
304.1444120187783
 20
9.937873678930856
 30
0.0
 40
0.20000000005
100
AcDbArc
 50
270.0
 51
0.0
  0
ARC
  5
188
330
2
100
AcDbEntity
  8
0
  6
Continuous
 62
     6
100
AcDbCircle
 10
304.1444120187783
 20
12.08787367788086
 30
0.0
 40
0.20000000005
100
AcDbArc
 50
0.0
 51
90.0
  0
ARC
  5
189
330
2
100
AcDbEntity
  8
0
  6
Continuous
 62
     7
100
AcDbCircle
 10
304.5694120184084
 20
33.59047557734085
 30
0.0
 40
1.499999999739998
100
AcDbArc
 50
0.0
 51
90.0
  0
ARC
  5
18A
330
2
100
AcDbEntity
  8
0
  6
Continuous
 62
     7
100
AcDbCircle
 10
306.0194120190883
 20
27.03787367876086
 30
0.0
 40
0.9499999999199998
100
AcDbArc
 50
108.0800126242993
 51
251.9199873760999
  0
CIRCLE
  5
18B
330
2
100
AcDbEntity
  8
0
  6
Continuous
 62
     2
100
AcDbCircle
 10
303.5194120190983
 20
29.34047557723086
 30
0.0
 40
0.7499999998699999
  0
CIRCLE
  5
18C
330
2
100
AcDbEntity
  8
0
  6
Continuous
 62
     2
100
AcDbCircle
 10
303.5194120190983
 20
29.34047557723086
 30
0.0
 40
0.6500000004800001
  0
ARC
  5
18D
330
2
100
AcDbEntity
  8
0
  6
Continuous
 62
     7
100
AcDbCircle
 10
305.5694120186583
 20
28.41627855339087
 30
0.0
 40
0.49999999949
100
AcDbArc
 50
288.0800126247001
 51
0.0
  0
ARC
  5
18E
330
2
100
AcDbEntity
  8
0
  6
Continuous
 62
     7
100
AcDbCircle
 10
305.5694120186583
 20
25.65946880286086
 30
0.0
 40
0.49999999949
100
AcDbArc
 50
0.0
 51
71.91998737449996
  0
CIRCLE
  5
18F
330
2
100
AcDbEntity
  8
0
  6
Continuous
 62
     2
100
AcDbCircle
 10
303.5194120190983
 20
29.34047557723086
 30
0.0
 40
0.4500000004300003
  0
CIRCLE
  5
190
330
2
100
AcDbEntity
  8
0
  6
Continuous
 62
     2
100
AcDbCircle
 10
303.5194120190983
 20
29.34047557723086
 30
0.0
 40
0.34999999977
  0
CIRCLE
  5
191
330
2
100
AcDbEntity
  8
0
  6
Continuous
 62
     6
100
AcDbCircle
 10
303.5194120190983
 20
33.96047557775087
 30
0.0
 40
0.25000000038
  0
ARC
  5
192
330
2
100
AcDbEntity
  8
0
  6
Continuous
 62
     6
100
AcDbCircle
 10
304.1444120187783
 20
32.39047557704086
 30
0.0
 40
0.20000000005
100
AcDbArc
 50
270.0
 51
0.0
  0
ARC
  5
193
330
2
100
AcDbEntity
  8
0
  6
Continuous
 62
     6
100
AcDbCircle
 10
304.1444120187783
 20
34.54047557726087
 30
0.0
 40
0.20000000005
100
AcDbArc
 50
0.0
 51
90.0
  0
ARC
  5
194
330
2
100
AcDbEntity
  8
0
  6
Continuous
 62
     7
100
AcDbCircle
 10
331.4528305222284
 20
32.39047557704086
 30
0.0
 40
0.20000000005
100
AcDbArc
 50
180.0
 51
270.0
  0
ARC
  5
195
330
2
100
AcDbEntity
  8
0
  6
Continuous
 62
     7
100
AcDbCircle
 10
331.4528305222284
 20
34.54047557726087
 30
0.0
 40
0.20000000005
100
AcDbArc
 50
90.0
 51
180.0
  0
ARC
  5
196
330
2
100
AcDbEntity
  8
0
  6
Continuous
 62
     7
100
AcDbCircle
 10
331.4528305222284
 20
9.937873678930856
 30
0.0
 40
0.20000000005
100
AcDbArc
 50
180.0
 51
270.0
  0
ARC
  5
197
330
2
100
AcDbEntity
  8
0
  6
Continuous
 62
     7
100
AcDbCircle
 10
331.4528305222284
 20
12.08787367788086
 30
0.0
 40
0.20000000005
100
AcDbArc
 50
90.0
 51
180.0
  0
ARC
  5
198
330
2
100
AcDbEntity
  8
0
  6
Continuous
 62
     7
100
AcDbCircle
 10
304.1444120187783
 20
46.96802734898087
 30
0.0
 40
0.20000000005
100
AcDbArc
 50
270.0
 51
0.0
  0
ARC
  5
199
330
2
100
AcDbEntity
  8
0
  6
Continuous
 62
     7
100
AcDbCircle
 10
302.8944120181483
 20
46.96802734898087
 30
0.0
 40
0.20000000005
100
AcDbArc
 50
180.0
 51
270.0
  0
ARC
  5
19A
330
2
100
AcDbEntity
  8
0
  6
Continuous
 62
     7
100
AcDbCircle
 10
302.8944120181483
 20
-8.413296842429131
 30
0.0
 40
0.20000000005
100
AcDbArc
 50
90.0
 51
180.0
  0
ARC
  5
19B
330
2
100
AcDbEntity
  8
0
  6
Continuous
 62
     7
100
AcDbCircle
 10
304.1444120187783
 20
-8.413296842429131
 30
0.0
 40
0.20000000005
100
AcDbArc
 50
0.0
 51
90.0
  0
DIMENSION
  5
19C
102
{ACAD_XDICTIONARY
360
19D
102
}
102
{ACAD_REACTORS
330
19E
102
}
330
2
100
AcDbEntity
  8
0
 62
     1
100
AcDbDimension
  2
*D0
 10
332.2528305224283
 20
39.67502531171863
 30
0.0
 11
326.7753305224283
 21
39.67502531171863
 31
0.0
 71
     5
 42
0.8000000001999294
  3
STANDARD
100
AcDbAlignedDimension
 13
333.0528305226283
 23
35.09047557708085
 33
0.0
 14
332.2528305224283
 24
35.09047557708085
 34
0.0
100
AcDbRotatedDimension
1001
ACAD
1000
DSTYLE
1002
{
1070
    42
1040
0.0730807087
1070
    43
1040
0.4443307087
1070
    44
1040
0.2104724409
1070
    47
1040
0.0
1070
    48
1040
0.0
1070
    69
1070
     2
1070
    70
1070
     1
1070
    78
1070
     0
1070
   140
1040
3.0
1070
   141
1040
0.1052362205
1070
   176
1070
     1
1070
   177
1070
     1
1070
   178
1070
   256
1070
   271
1070
     4
1070
   272
1070
     4
1070
   284
1070
     0
1002
}
  0
DIMENSION
  5
1AD
102
{ACAD_XDICTIONARY
360
1AE
102
}
102
{ACAD_REACTORS
330
1AF
102
}
330
2
100
AcDbEntity
  8
0
 62
     1
100
AcDbDimension
  2
*D1
 10
300.9694120187783
 20
39.8294082611344
 30
0.0
 11
295.6919120187783
 21
39.8294082611344
 31
0.0
 71
     5
 42
5.09999999936997
  3
STANDARD
100
AcDbAlignedDimension
 13
306.0694120181483
 23
33.59047557734085
 33
0.0
 14
300.9694120187783
 24
33.59047557734085
 34
0.0
100
AcDbRotatedDimension
1001
ACAD
1000
DSTYLE
1002
{
1070
    42
1040
0.0730807087
1070
    43
1040
0.4443307087
1070
    44
1040
0.2104724409
1070
    47
1040
0.0
1070
    48
1040
0.0
1070
    69
1070
     2
1070
    70
1070
     1
1070
    78
1070
     0
1070
   140
1040
3.0
1070
   141
1040
0.1052362205
1070
   176
1070
     1
1070
   177
1070
     1
1070
   178
1070
   256
1070
   271
1070
     4
1070
   272
1070
     4
1070
   284
1070
     0
1002
}
  0
LINE
  5
1BD
330
2
100
AcDbEntity
  8
0
  6
Continuous
 62
     2
100
AcDbLine
 10
403.4795326333616
 20
9.03940599254458
 30
0.0
 11
403.4736691043212
 21
9.045276699624604
 31
0.0
  0
LINE
  5
1BE
330
2
100
AcDbEntity
  8
0
  6
Continuous
 62
     2
100
AcDbLine
 10
402.5184510223816
 20
11.69862233272459
 30
0.0
 11
402.3736691046813
 21
11.69798545820459
 31
0.0
  0
LINE
  5
1BF
330
2
100
AcDbEntity
  8
0
  6
Continuous
 62
     2
100
AcDbLine
 10
403.0184522880616
 20
11.69833736758457
 30
0.0
 11
403.2184345144615
 21
11.69833736758457
 31
0.0
  0
LINE
  5
1C0
330
2
100
AcDbEntity
  8
8_4_1_1
  6
Continuous
 62
     2
100
AcDbLine
 10
409.0289036936016
 20
11.69833736758457
 30
0.0
 11
409.2288859200015
 21
11.69833736758457
 31
0.0
  0
LINE
  5
1C2
330
2
100
AcDbEntity
  8
0
  6
Continuous
 62
     7
100
AcDbLine
 10
404.4236691042416
 20
11.79857150290458
 30
0.0
 11
403.8236691053616
 21
11.79857150290458
 31
0.0
  0
LINE
  5
1C3
330
2
100
AcDbEntity
  8
0
  6
Continuous
 62
     7
100
AcDbLine
 10
407.8236691038216
 20
11.79857150290458
 30
0.0
 11
408.4236691052415
 21
11.79857150290458
 31
0.0
  0
LINE
  5
1C4
330
2
100
AcDbEntity
  8
0
  6
Continuous
 62
     2
100
AcDbLine
 10
403.6736691056416
 20
11.89857004306458
 30
0.0
 11
405.7736668817616
 21
11.89857316218459
 31
0.0
  0
LINE
  5
1C5
330
2
100
AcDbEntity
  8
8_4_1_1
  6
Continuous
 62
     2
100
AcDbLine
 10
406.4736713288414
 20
11.89857316218459
 30
0.0
 11
408.5736691049616
 21
11.89857004306458
 31
0.0
  0
LINE
  5
1C6
330
2
100
AcDbEntity
  8
8_4_1_1
  6
Continuous
 62
     2
100
AcDbLine
 10
409.8736691059216
 20
11.69798545820459
 30
0.0
 11
409.7288884556816
 21
11.69862233272459
 31
0.0
  0
LINE
  5
1C7
330
2
100
AcDbEntity
  8
8_4_1_1
  6
Continuous
 62
     2
100
AcDbLine
 10
408.0798486194016
 20
12.80857111866458
 30
0.0
 11
407.0736733927416
 21
12.8085729398446
 31
0.0
  0
LINE
  5
1C8
330
2
100
AcDbEntity
  8
0
  6
Continuous
 62
     2
100
AcDbLine
 10
405.1736648178616
 20
12.8085729398446
 30
0.0
 11
404.1674895912016
 21
12.80857111866458
 31
0.0
  0
LINE
  5
1C9
330
2
100
AcDbEntity
  8
8_4_1_1
  6
Continuous
 62
     2
100
AcDbLine
 10
408.5295106588616
 20
13.72997637770458
 30
0.0
 11
407.9295142693216
 21
13.72938553814459
 31
0.0
  0
LINE
  5
1CA
330
2
100
AcDbEntity
  8
8_4_1_1
  6
Continuous
 62
     2
100
AcDbLine
 10
409.8736691059216
 20
13.39597464032457
 30
0.0
 11
408.5297615143416
 21
13.39597464032457
 31
0.0
  0
LINE
  5
1CB
330
2
100
AcDbEntity
  8
0
  6
Continuous
 62
     2
100
AcDbLine
 10
402.3736691046813
 20
13.39597464032457
 30
0.0
 11
403.7175773719016
 21
13.39597464032457
 31
0.0
  0
LINE
  5
1CC
330
2
100
AcDbEntity
  8
0
  6
Continuous
 62
     2
100
AcDbLine
 10
404.3178239412816
 20
13.72938553814459
 30
0.0
 11
403.7178275492016
 21
13.72997637770458
 31
0.0
  0
LINE
  5
1CD
330
2
100
AcDbEntity
  8
8_4_1_1
  6
Continuous
 62
     2
100
AcDbLine
 10
407.9292234291616
 20
14.10853511512458
 30
0.0
 11
407.2736744964216
 21
14.10853630130459
 31
0.0
  0
LINE
  5
1CE
330
2
100
AcDbEntity
  8
0
  6
Continuous
 62
     2
100
AcDbLine
 10
404.9736637116414
 20
14.10853630130459
 30
0.0
 11
404.3181147814416
 21
14.10853511512458
 31
0.0
  0
LINE
  5
1CF
330
2
100
AcDbEntity
  8
0
  6
Continuous
 62
     7
100
AcDbLine
 10
407.7302075051216
 20
14.15853669914457
 30
0.0
 11
407.2736754209816
 21
14.15853669914457
 31
0.0
  0
LINE
  5
1D0
330
2
100
AcDbEntity
  8
0
  6
Continuous
 62
     7
100
AcDbLine
 10
404.9736627896215
 20
14.15853669914457
 30
0.0
 11
404.5171307054816
 21
14.15853669914457
 31
0.0
  0
LWPOLYLINE
  5
1D1
330
2
100
AcDbEntity
  8
0
  6
Continuous
 62
     2
100
AcDbPolyline
 90
        6
 70
     0
 43
0.0
 10
402.6639056336817
 20
10.2520173722446
 10
402.7923099590415
 20
9.977036001964583
 10
402.9637301267416
 20
9.679794747324583
 10
403.1713437399615
 20
9.386665026244607
 10
403.4177911160015
 20
9.10230058608459
 10
403.4795464331816
 20
9.039419840624582
  0
LINE
  5
1D2
330
2
100
AcDbEntity
  8
8_4_1_1
  6
Continuous
 62
     2
100
AcDbLine
 10
407.2736773920216
 20
15.2485726724846
 30
0.0
 11
406.4736773943616
 21
15.24857412028458
 31
0.0
  0
LINE
  5
1D3
330
2
100
AcDbEntity
  8
0
  6
Continuous
 62
     2
100
AcDbLine
 10
405.7736608162415
 20
15.24857412028458
 30
0.0
 11
404.9736608160416
 21
15.2485726724846
 31
0.0
  0
LINE
  5
1D4
330
2
100
AcDbEntity
  8
8_4_1_1
  6
Continuous
 62
     2
100
AcDbLine
 10
408.5271035846816
 20
16.90902470336457
 30
0.0
 11
407.9271037585215
 21
16.90857047262458
 31
0.0
  0
LINE
  5
1D5
330
2
100
AcDbEntity
  8
0
  6
Continuous
 62
     2
100
AcDbLine
 10
404.3202344520816
 20
16.90857047262458
 30
0.0
 11
403.7202346259213
 21
16.90902470336457
 31
0.0
  0
LWPOLYLINE
  5
1D6
330
2
100
AcDbEntity
  8
0
  6
Continuous
 62
     2
100
AcDbPolyline
 90
        5
 70
     0
 43
0.0
 10
402.3736691351616
 20
11.69810842214459
 10
402.3834679522413
 20
11.42877022828458
 10
402.4140867175212
 20
11.15088126666458
 10
402.4679707550417
 20
10.86390167044457
 10
402.5034552357616
 20
10.72123946910458
  0
LINE
  5
1D7
330
2
100
AcDbEntity
  8
0
  6
Continuous
 62
     2
100
AcDbLine
 10
402.3736599149613
 20
11.69798545566458
 30
0.0
 11
402.3736691046813
 21
13.39597464032457
 31
0.0
  0
LINE
  5
1D8
330
2
100
AcDbEntity
  8
0
  6
Continuous
 62
     7
100
AcDbLine
 10
403.7179708407617
 20
13.91876769938456
 30
0.0
 11
403.5736691049816
 21
14.49597464250458
 31
0.0
  0
LINE
  5
1D9
330
2
100
AcDbEntity
  8
0
  6
Continuous
 62
     2
100
AcDbLine
 10
402.5184181090616
 20
13.39597464032457
 30
0.0
 11
402.5184010199414
 21
11.69862233272459
 31
0.0
  0
LINE
  5
1DA
330
2
100
AcDbEntity
  8
0
  6
Continuous
 62
     2
100
AcDbLine
 10
403.0184522880616
 20
11.69833714914458
 30
0.0
 11
403.0184522880616
 21
13.39597464032457
 31
0.0
  0
LINE
  5
1DB
330
2
100
AcDbEntity
  8
0
  6
Continuous
 62
     2
100
AcDbLine
 10
403.2184345144615
 20
13.39597464032457
 30
0.0
 11
403.2184260562615
 21
11.69833714914458
 31
0.0
  0
LINE
  5
1DC
330
2
100
AcDbEntity
  8
0
  6
Continuous
 62
     2
100
AcDbLine
 10
403.3736691036616
 20
9.309228150384591
 30
0.0
 11
403.3736691036616
 21
10.15983554746459
 31
0.0
  0
LINE
  5
1DD
330
2
100
AcDbEntity
  8
0
  6
Continuous
 62
     7
100
AcDbLine
 10
403.5736691049816
 20
26.41756976548459
 30
0.0
 11
403.5736691049816
 21
14.49597464250458
 31
0.0
  0
LINE
  5
1DE
330
2
100
AcDbEntity
  8
0
  6
Continuous
 62
     7
100
AcDbLine
 10
403.5736691049816
 20
29.17437951728459
 30
0.0
 11
403.5736691049816
 21
34.34857653996456
 31
0.0
  0
LINE
  5
1DF
330
2
100
AcDbEntity
  8
0
  6
Continuous
 62
     2
100
AcDbLine
 10
403.6736691056416
 20
8.862056916204586
 30
0.0
 11
403.6736690929417
 21
11.89857008370459
 31
0.0
  0
LINE
  5
1E0
330
2
100
AcDbEntity
  8
0
  6
Continuous
 62
     7
100
AcDbLine
 10
403.8236691053616
 20
11.79857150290458
 30
0.0
 11
403.8236691053616
 21
10.59748798432458
 31
0.0
  0
LINE
  5
1E1
330
2
100
AcDbEntity
  8
0
  6
Continuous
 62
     2
100
AcDbLine
 10
404.0682399903614
 20
13.72982996448458
 30
0.0
 11
404.0682433050613
 21
11.89856997956459
 31
0.0
  0
LINE
  5
1E2
330
2
100
AcDbEntity
  8
0
  6
Continuous
 62
     7
100
AcDbLine
 10
404.1236691048017
 20
25.8485765397446
 30
0.0
 11
404.1236691048017
 21
21.84857654128459
 31
0.0
  0
LINE
  5
1E3
330
2
100
AcDbEntity
  8
0
  6
Continuous
 62
     2
100
AcDbLine
 10
404.1675416078616
 20
12.80857111866458
 30
0.0
 11
404.1676688440815
 21
13.72961861616458
 31
0.0
  0
LINE
  5
1E4
330
2
100
AcDbEntity
  8
0
  6
Continuous
 62
     2
100
AcDbLine
 10
403.7202346233816
 20
16.90902470336457
 30
0.0
 11
403.7164410825816
 21
11.89856951982458
 31
0.0
  0
LINE
  5
1E5
330
2
100
AcDbEntity
  8
0
  6
Continuous
 62
     2
100
AcDbLine
 10
403.8702342675013
 20
16.90891107646458
 30
0.0
 11
403.8678275082816
 21
13.72979457974458
 31
0.0
  0
LINE
  5
1E6
330
2
100
AcDbEntity
  8
0
  6
Continuous
 62
     2
100
AcDbLine
 10
404.1678274213616
 20
13.72956746564458
 30
0.0
 11
404.1702341805815
 21
16.90868395982457
 31
0.0
  0
LINE
  5
1E7
330
2
100
AcDbEntity
  8
0
  6
Continuous
 62
     2
100
AcDbLine
 10
404.3202344520816
 20
16.90857047008457
 30
0.0
 11
404.3171297008615
 21
12.80857145648459
 31
0.0
  0
LINE
  5
1E8
330
2
100
AcDbEntity
  8
0
  6
Continuous
 62
     2
100
AcDbLine
 10
404.4236691042416
 20
11.79857150290458
 30
0.0
 11
404.4236691042416
 21
11.89857062472457
 31
0.0
  0
LINE
  5
1E9
330
2
100
AcDbEntity
  8
0
  6
Continuous
 62
     7
100
AcDbLine
 10
404.5171307054816
 20
14.15853669914457
 30
0.0
 11
404.5171307054816
 21
14.10853547326458
 31
0.0
  0
LINE
  5
1EA
330
2
100
AcDbEntity
  8
0
  6
Continuous
 62
     2
100
AcDbLine
 10
404.9736652331016
 20
12.80857267314457
 30
0.0
 11
404.9736608160416
 21
15.2485726724846
 31
0.0
  0
LINE
  5
1EB
330
2
100
AcDbEntity
  8
0
  6
Continuous
 62
     2
100
AcDbLine
 10
405.1736603982616
 20
15.24857294172458
 30
0.0
 11
405.1736648178616
 21
12.8085729398446
 31
0.0
  0
LINE
  5
1EC
330
2
100
AcDbEntity
  8
0
  6
Continuous
 62
     2
100
AcDbLine
 10
405.5736664664216
 20
11.89857270498459
 30
0.0
 11
405.5736604009017
 21
15.24857366562459
 31
0.0
  0
LINE
  5
1ED
330
2
100
AcDbEntity
  8
0
  6
Continuous
 62
     2
100
AcDbLine
 10
405.7736608162415
 20
15.24857412028458
 30
0.0
 11
405.7736668817616
 21
11.89857316218459
 31
0.0
  0
LINE
  5
1EE
330
2
100
AcDbEntity
  8
0
  6
Continuous
 62
     7
100
AcDbLine
 10
404.1236691048017
 20
21.84857654128459
 30
0.0
 11
408.1236691058014
 21
21.84857654128459
 31
0.0
  0
LINE
  5
1EF
330
2
100
AcDbEntity
  8
8_4_1_1
  6
Continuous
 62
     2
100
AcDbLine
 10
406.4736713288414
 20
11.89857316218459
 30
0.0
 11
406.4736773943616
 21
15.24857412028458
 31
0.0
  0
LINE
  5
1F0
330
2
100
AcDbEntity
  8
8_4_1_1
  6
Continuous
 62
     2
100
AcDbLine
 10
406.6736778097014
 20
15.24857366562459
 30
0.0
 11
406.6736717441814
 21
11.89857270498459
 31
0.0
  0
LINE
  5
1F1
330
2
100
AcDbEntity
  8
8_4_1_1
  6
Continuous
 62
     2
100
AcDbLine
 10
407.0736733927416
 20
12.8085729398446
 30
0.0
 11
407.0736778098016
 21
15.24857294172458
 31
0.0
  0
LINE
  5
1F2
330
2
100
AcDbEntity
  8
8_4_1_1
  6
Continuous
 62
     2
100
AcDbLine
 10
407.9302085072016
 20
12.80857145648459
 30
0.0
 11
407.9271037585215
 21
16.90857047008457
 31
0.0
  0
LINE
  5
1F3
330
2
100
AcDbEntity
  8
8_4_1_1
  6
Continuous
 62
     2
100
AcDbLine
 10
408.0771040274815
 20
16.90868395982457
 30
0.0
 11
408.0797333288015
 21
13.45980437296457
 31
0.0
  0
LINE
  5
1F4
330
2
100
AcDbEntity
  8
8_4_1_1
  6
Continuous
 62
     2
100
AcDbLine
 10
407.2736773945614
 20
15.2485726724846
 30
0.0
 11
407.2736729775015
 21
12.80857267314457
 31
0.0
  0
LINE
  5
1F5
330
2
100
AcDbEntity
  8
0
  6
Continuous
 62
     7
100
AcDbLine
 10
407.7302075051216
 20
14.10853547326458
 30
0.0
 11
407.7302075051216
 21
14.15853669914457
 31
0.0
  0
LINE
  5
1F6
330
2
100
AcDbEntity
  8
0
  6
Continuous
 62
     7
100
AcDbLine
 10
407.8236691038216
 20
11.89857062472457
 30
0.0
 11
407.8236691038216
 21
11.79857150290458
 31
0.0
  0
LINE
  5
1F7
330
2
100
AcDbEntity
  8
8_4_1_1
  6
Continuous
 62
     2
100
AcDbLine
 10
408.0797333288015
 20
13.45980437296457
 30
0.0
 11
408.0797966002016
 21
12.80857111866458
 31
0.0
  0
LINE
  5
1F8
330
2
100
AcDbEntity
  8
8_4_1_1
  6
Continuous
 62
     2
100
AcDbLine
 10
408.3795107023213
 20
13.72979457974458
 30
0.0
 11
408.3771039431013
 21
16.90891107646458
 31
0.0
  0
LINE
  5
1F9
330
2
100
AcDbEntity
  8
8_4_1_1
  6
Continuous
 62
     2
100
AcDbLine
 10
408.5271035872215
 20
16.90902470082458
 30
0.0
 11
408.5308971280213
 21
11.89856951982458
 31
0.0
  0
LINE
  5
1FA
330
2
100
AcDbEntity
  8
0
  6
Continuous
 62
     7
100
AcDbLine
 10
408.1236691058014
 20
21.84857654128459
 30
0.0
 11
408.1236691058014
 21
25.8485765397446
 31
0.0
  0
LINE
  5
1FB
330
2
100
AcDbEntity
  8
8_4_1_1
  6
Continuous
 62
     2
100
AcDbLine
 10
408.1790982227813
 20
13.72961843582458
 30
0.0
 11
408.1790949080816
 21
11.89856997956459
 31
0.0
  0
LINE
  5
1FC
330
2
100
AcDbEntity
  8
0
  6
Continuous
 62
     7
100
AcDbLine
 10
408.4236691052415
 20
11.79857150290458
 30
0.0
 11
408.4236691052415
 21
10.59761037676459
 31
0.0
  0
LINE
  5
1FD
330
2
100
AcDbEntity
  8
8_4_1_1
  6
Continuous
 62
     2
100
AcDbLine
 10
408.5736691049616
 20
8.862056916204586
 30
0.0
 11
408.5736691049616
 21
11.89857013704459
 31
0.0
  0
LINE
  5
1FE
330
2
100
AcDbEntity
  8
0
  6
Continuous
 62
     7
100
AcDbLine
 10
408.6736691056215
 20
34.34857653996456
 30
0.0
 11
408.6736691056215
 21
19.87437951686458
 31
0.0
  0
LINE
  5
1FF
330
2
100
AcDbEntity
  8
0
  6
Continuous
 62
     7
100
AcDbLine
 10
408.6736691056215
 20
14.49597464250458
 30
0.0
 11
408.6736691056215
 21
17.11756976760458
 31
0.0
  0
LINE
  5
200
330
2
100
AcDbEntity
  8
8_4_1_1
  6
Continuous
 62
     2
100
AcDbLine
 10
408.8736691044013
 20
10.15983554746459
 30
0.0
 11
408.8736691044013
 21
9.309228150384591
 31
0.0
  0
LINE
  5
201
330
2
100
AcDbEntity
  8
8_4_1_1
  6
Continuous
 62
     2
100
AcDbLine
 10
409.0289121543416
 20
11.69833714914458
 30
0.0
 11
409.0289036936016
 21
13.39597464032457
 31
0.0
  0
LINE
  5
202
330
2
100
AcDbEntity
  8
8_4_1_1
  6
Continuous
 62
     2
100
AcDbLine
 10
409.2288859200015
 20
13.39597464032457
 30
0.0
 11
409.2288859200015
 21
11.69833714914458
 31
0.0
  0
LINE
  5
203
330
2
100
AcDbEntity
  8
8_4_1_1
  6
Continuous
 62
     2
100
AcDbLine
 10
409.7289371906616
 20
11.69862233272459
 30
0.0
 11
409.7289200990013
 21
13.39597464032457
 31
0.0
  0
LINE
  5
204
330
2
100
AcDbEntity
  8
8_4_1_1
  6
Continuous
 62
     2
100
AcDbLine
 10
409.8736691059216
 20
13.39597464032457
 30
0.0
 11
409.8736782956416
 21
11.69798545566458
 31
0.0
  0
LINE
  5
205
330
2
100
AcDbEntity
  8
0
  6
Continuous
 62
     7
100
AcDbLine
 10
408.1236691058014
 20
25.8485765397446
 30
0.0
 11
404.1236691048017
 21
25.8485765397446
 31
0.0
  0
LINE
  5
206
330
2
100
AcDbEntity
  8
0
  6
Continuous
 62
     7
100
AcDbLine
 10
408.6736691056215
 20
14.49597464250458
 30
0.0
 11
408.5293673698417
 21
13.91876769938456
 31
0.0
  0
LWPOLYLINE
  5
207
330
2
100
AcDbEntity
  8
8_4_1_1
  6
Continuous
 62
     2
100
AcDbPolyline
 90
        5
 70
     0
 43
0.0
 10
409.7438819690016
 20
10.72123573530458
 10
409.7793670161416
 20
10.86389974766457
 10
409.8332496693615
 20
11.15086894258459
 10
409.8638698951416
 20
11.42876522702459
 10
409.8736690754416
 20
11.69810842214459
  0
LINE
  5
208
330
2
100
AcDbEntity
  8
8_4_1_1
  6
Continuous
 62
     2
100
AcDbLine
 10
409.5833321300816
 20
10.25205743058459
 30
0.0
 11
409.7439746028014
 21
10.72121071884459
 31
0.0
  0
LWPOLYLINE
  5
209
330
2
100
AcDbEntity
  8
8_4_1_1
  6
Continuous
 62
     2
100
AcDbPolyline
 90
        6
 70
     0
 43
0.0
 10
408.7677915793014
 20
9.039419642504588
 10
408.8295500867216
 20
9.102303707744587
 10
409.0759967845817
 20
9.386667987884573
 10
409.2836098136016
 20
9.679797457504584
 10
409.4550294910816
 20
9.97703839718458
 10
409.5834318835016
 20
10.25201571616457
  0
LINE
  5
20A
330
2
100
AcDbEntity
  8
8_4_1_1
  6
Continuous
 62
     2
100
AcDbLine
 10
408.7678053765815
 20
9.039405794424586
 30
0.0
 11
408.7736691037417
 21
9.045276699624604
 31
0.0
  0
LINE
  5
20B
330
2
100
AcDbEntity
  8
0
  6
Continuous
 62
     7
100
AcDbLine
 10
405.0736691047216
 20
35.84857653970456
 30
0.0
 11
407.1736691058815
 21
35.84857653970456
 31
0.0
  0
LINE
  5
20C
330
2
100
AcDbEntity
  8
0
  6
Continuous
 62
     7
100
AcDbLine
 10
423.3833546696817
 20
10.49597464150459
 30
0.0
 11
422.8833546689216
 21
10.49597464150459
 31
0.0
  0
LINE
  5
20D
330
2
100
AcDbEntity
  8
0
  6
Continuous
 62
     7
100
AcDbLine
 10
422.8833546689216
 20
10.69597464282458
 30
0.0
 11
423.5833546684617
 21
10.69597464282458
 31
0.0
  0
LINE
  5
20E
330
2
100
AcDbEntity
  8
8_4_1_1
  6
Continuous
 62
     2
100
AcDbLine
 10
420.6226860508214
 20
11.89856997956459
 30
0.0
 11
421.4833546698415
 21
11.89856974588457
 31
0.0
  0
LINE
  5
20F
330
2
100
AcDbEntity
  8
8_4_1_1
  6
Continuous
 62
     2
100
AcDbLine
 10
422.8833546689216
 20
11.69798545820459
 30
0.0
 11
421.4833655791417
 21
11.69862233272459
 31
0.0
  0
LINE
  5
210
330
2
100
AcDbEntity
  8
0
  6
Continuous
 62
     7
100
AcDbLine
 10
423.5833546684617
 20
12.8459746405046
 30
0.0
 11
422.8833546689216
 21
12.8459746405046
 31
0.0
  0
LINE
  5
211
330
2
100
AcDbEntity
  8
0
  6
Continuous
 62
     7
100
AcDbLine
 10
422.8833546689216
 20
13.04597464182459
 30
0.0
 11
423.3833546696817
 21
13.04597464182459
 31
0.0
  0
LINE
  5
212
330
2
100
AcDbEntity
  8
8_4_1_1
  6
Continuous
 62
     2
100
AcDbLine
 10
422.8833546689216
 20
13.39597464032457
 30
0.0
 11
421.4833546698415
 21
13.39597464032457
 31
0.0
  0
LINE
  5
213
330
2
100
AcDbEntity
  8
0
  6
Continuous
 62
     7
100
AcDbLine
 10
421.7833546692816
 20
13.49597464098459
 30
0.0
 11
422.5833546694812
 21
13.49597464098459
 31
0.0
  0
LINE
  5
214
330
2
100
AcDbEntity
  8
8_4_1_1
  6
Continuous
 62
     2
100
AcDbLine
 10
421.1726859439616
 20
13.72997646152459
 30
0.0
 11
420.6226852024614
 21
13.72963119932458
 31
0.0
  0
LINE
  5
215
330
2
100
AcDbEntity
  8
0
  6
Continuous
 62
     7
100
AcDbLine
 10
422.5833546694812
 20
14.49597464250458
 30
0.0
 11
421.7833546692816
 21
14.49597464250458
 31
0.0
  0
LINE
  5
216
330
2
100
AcDbEntity
  8
8_4_1_1
  6
Continuous
 62
     2
100
AcDbLine
 10
421.0226825939817
 20
15.24857276646458
 30
0.0
 11
420.6226821773216
 21
15.24857294172458
 31
0.0
  0
LINE
  5
217
330
2
100
AcDbEntity
  8
0
  6
Continuous
 62
     7
100
AcDbLine
 10
423.0833546702416
 20
16.84857654130458
 30
0.0
 11
422.5833546694812
 21
16.84857654130458
 31
0.0
  0
LINE
  5
218
330
2
100
AcDbEntity
  8
8_4_1_1
  6
Continuous
 62
     2
100
AcDbLine
 10
421.0226841154415
 20
16.90891107646458
 30
0.0
 11
421.6333576947016
 21
16.90902492434459
 31
0.0
  0
LINE
  5
219
330
2
100
AcDbEntity
  8
8_4_1_1
  6
Continuous
 62
     2
100
AcDbLine
 10
421.7833574048616
 20
16.90891143206458
 30
0.0
 11
421.6333577175613
 21
16.90902491926459
 31
0.0
  0
LINE
  5
21A
330
2
100
AcDbEntity
  8
0
  6
Continuous
 62
     7
100
AcDbLine
 10
422.5833546694812
 20
17.11756976760458
 30
0.0
 11
421.7833546692816
 21
17.11756976760458
 31
0.0
  0
LINE
  5
21B
330
2
100
AcDbEntity
  8
0
  6
Continuous
 62
     7
100
AcDbLine
 10
421.7833546692816
 20
17.59288179132459
 30
0.0
 11
422.5833546694812
 21
17.59288179132459
 31
0.0
  0
LINE
  5
21C
330
2
100
AcDbEntity
  8
0
  6
Continuous
 62
     7
100
AcDbLine
 10
424.0833546692213
 20
29.44857654064458
 30
0.0
 11
423.9833546685614
 21
29.3485765399846
 31
0.0
  0
LINE
  5
21D
330
2
100
AcDbEntity
  8
0
  6
Continuous
 62
     7
100
AcDbLine
 10
424.8833546694217
 20
29.74857654008459
 30
0.0
 11
424.7833546687616
 21
29.64857654196458
 31
0.0
  0
LINE
  5
21E
330
2
100
AcDbEntity
  8
0
  6
Continuous
 62
     7
100
AcDbLine
 10
423.0833546702416
 20
19.34857654002458
 30
0.0
 11
422.5833546694812
 21
19.34857654002458
 31
0.0
  0
LINE
  5
21F
330
2
100
AcDbEntity
  8
0
  6
Continuous
 62
     7
100
AcDbLine
 10
422.5833546694812
 20
19.3990674906046
 30
0.0
 11
421.7833546692816
 21
19.3990674906046
 31
0.0
  0
LINE
  5
220
330
2
100
AcDbEntity
  8
8_4_1_1
  6
Continuous
 62
     2
100
AcDbLine
 10
420.9970986116216
 20
13.72982950474459
 30
0.0
 11
420.9985843262016
 21
11.89856951982458
 31
0.0
  0
LINE
  5
221
330
2
100
AcDbEntity
  8
8_4_1_1
  6
Continuous
 62
     2
100
AcDbLine
 10
420.6226821773216
 20
15.24857294172458
 30
0.0
 11
420.6226860508214
 21
11.89856997956459
 31
0.0
  0
LINE
  5
222
330
2
100
AcDbEntity
  8
0
  6
Continuous
 62
     7
100
AcDbLine
 10
420.7833546703017
 20
21.84857654128459
 30
0.0
 11
420.7833546703017
 21
25.8485765397446
 31
0.0
  0
LINE
  5
223
330
2
100
AcDbEntity
  8
8_4_1_1
  6
Continuous
 62
     2
100
AcDbLine
 10
420.8226825952015
 20
15.2485726724846
 30
0.0
 11
420.8226833089416
 21
13.72981558300458
 31
0.0
  0
LINE
  5
224
330
2
100
AcDbEntity
  8
8_4_1_1
  6
Continuous
 62
     2
100
AcDbLine
 10
421.0226856115016
 20
13.72979457974458
 30
0.0
 11
421.0226841154415
 21
16.90891107646458
 31
0.0
  0
LINE
  5
225
330
2
100
AcDbEntity
  8
0
  6
Continuous
 62
     7
100
AcDbLine
 10
421.7833546692816
 20
19.87437951686458
 30
0.0
 11
422.5833546694812
 21
19.87437951686458
 31
0.0
  0
LINE
  5
226
330
2
100
AcDbEntity
  8
8_4_1_1
  6
Continuous
 62
     2
100
AcDbLine
 10
421.1726844072616
 20
16.90902470082458
 30
0.0
 11
421.1726859439616
 21
13.72997646152459
 31
0.0
  0
LINE
  5
227
330
2
100
AcDbEntity
  8
8_4_1_1
  6
Continuous
 62
     2
100
AcDbLine
 10
421.4833546698415
 20
9.309228150384591
 30
0.0
 11
421.4833546698415
 21
13.39597464032457
 31
0.0
  0
LINE
  5
228
330
2
100
AcDbEntity
  8
8_4_1_1
  6
Continuous
 62
     2
100
AcDbLine
 10
421.6333593939616
 20
13.39597448538459
 30
0.0
 11
421.6333576947016
 21
16.90902492434459
 31
0.0
  0
LINE
  5
229
330
2
100
AcDbEntity
  8
0
  6
Continuous
 62
     7
100
AcDbLine
 10
421.7833546692816
 20
13.49597464098459
 30
0.0
 11
421.7833546692816
 21
35.84857653970456
 31
0.0
  0
LINE
  5
22A
330
2
100
AcDbEntity
  8
8_4_1_1
  6
Continuous
 62
     7
100
AcDbLine
 10
421.7833590584016
 20
13.39597464540458
 30
0.0
 11
421.7833590126816
 21
13.49597464098459
 31
0.0
  0
LINE
  5
22B
330
2
100
AcDbEntity
  8
0
  6
Continuous
 62
     7
100
AcDbLine
 10
422.5833546694812
 20
13.39597464032457
 30
0.0
 11
422.5833546694812
 21
35.84857653970456
 31
0.0
  0
LINE
  5
22C
330
2
100
AcDbEntity
  8
0
  6
Continuous
 62
     7
100
AcDbLine
 10
420.7833546703017
 20
21.84857654128459
 30
0.0
 11
421.7833546692816
 21
21.84857654128459
 31
0.0
  0
LINE
  5
22D
330
2
100
AcDbEntity
  8
8_4_1_1
  6
Continuous
 62
     2
100
AcDbLine
 10
422.8833546689216
 20
9.045358954984584
 30
0.0
 11
422.8833546689216
 21
13.39597464032457
 31
0.0
  0
LINE
  5
22E
330
2
100
AcDbEntity
  8
0
  6
Continuous
 62
     7
100
AcDbLine
 10
422.8833546689216
 20
32.84857654022459
 30
0.0
 11
422.8833546689216
 21
35.59857654186457
 31
0.0
  0
LINE
  5
22F
330
2
100
AcDbEntity
  8
0
  6
Continuous
 62
     7
100
AcDbLine
 10
423.0833546702416
 20
16.84857654130458
 30
0.0
 11
423.0833546702416
 21
19.34857654002458
 31
0.0
  0
LINE
  5
230
330
2
100
AcDbEntity
  8
0
  6
Continuous
 62
     7
100
AcDbLine
 10
423.0833546702416
 20
27.39857654108457
 30
0.0
 11
423.0833546702416
 21
28.3985765400646
 31
0.0
  0
LINE
  5
231
330
2
100
AcDbEntity
  8
0
  6
Continuous
 62
     7
100
AcDbLine
 10
423.3833546696817
 20
10.49597464150459
 30
0.0
 11
423.3833546696817
 21
13.04597464182459
 31
0.0
  0
LINE
  5
232
330
2
100
AcDbEntity
  8
0
  6
Continuous
 62
     7
100
AcDbLine
 10
423.3833546696817
 20
32.9485765408846
 30
0.0
 11
423.3833546696817
 21
35.49857654120458
 31
0.0
  0
LINE
  5
233
330
2
100
AcDbEntity
  8
0
  6
Continuous
 62
     7
100
AcDbLine
 10
423.5833546684617
 20
35.2985765398846
 30
0.0
 11
423.5833546684617
 21
33.14857653966458
 31
0.0
  0
LINE
  5
234
330
2
100
AcDbEntity
  8
0
  6
Continuous
 62
     7
100
AcDbLine
 10
423.5833546684617
 20
12.8459746405046
 30
0.0
 11
423.5833546684617
 21
10.69597464282458
 31
0.0
  0
LINE
  5
235
330
2
100
AcDbEntity
  8
0
  6
Continuous
 62
     7
100
AcDbLine
 10
423.9833546685614
 20
29.3485765399846
 30
0.0
 11
423.9833546685614
 21
30.84857653972458
 31
0.0
  0
LINE
  5
236
330
2
100
AcDbEntity
  8
0
  6
Continuous
 62
     7
100
AcDbLine
 10
424.0833546692213
 20
29.44857654064458
 30
0.0
 11
424.0833546692213
 21
30.74857654160459
 31
0.0
  0
LINE
  5
237
330
2
100
AcDbEntity
  8
0
  6
Continuous
 62
     7
100
AcDbLine
 10
424.7833546687616
 20
29.64857654196458
 30
0.0
 11
424.7833546687616
 21
30.54857654028459
 31
0.0
  0
LINE
  5
238
330
2
100
AcDbEntity
  8
0
  6
Continuous
 62
     7
100
AcDbLine
 10
424.8833546694217
 20
29.74857654008459
 30
0.0
 11
424.8833546694217
 21
30.44857653962458
 31
0.0
  0
LINE
  5
239
330
2
100
AcDbEntity
  8
0
  6
Continuous
 62
     7
100
AcDbLine
 10
420.7833546703017
 20
25.8485765397446
 30
0.0
 11
421.7833546692816
 21
25.8485765397446
 31
0.0
  0
LINE
  5
23A
330
2
100
AcDbEntity
  8
0
  6
Continuous
 62
     7
100
AcDbLine
 10
423.0833546702416
 20
27.39857654108457
 30
0.0
 11
422.5833546694812
 21
27.39857654108457
 31
0.0
  0
LINE
  5
23B
330
2
100
AcDbEntity
  8
0
  6
Continuous
 62
     7
100
AcDbLine
 10
423.0833546702416
 20
28.3985765400646
 30
0.0
 11
422.5833546694812
 21
28.3985765400646
 31
0.0
  0
LINE
  5
23C
330
2
100
AcDbEntity
  8
0
  6
Continuous
 62
     7
100
AcDbLine
 10
423.9833546685614
 20
29.3485765399846
 30
0.0
 11
422.5833546694812
 21
29.3485765399846
 31
0.0
  0
LINE
  5
23D
330
2
100
AcDbEntity
  8
0
  6
Continuous
 62
     7
100
AcDbLine
 10
424.7833546687616
 20
29.64857654196458
 30
0.0
 11
424.0833546692213
 21
29.64857654196458
 31
0.0
  0
LINE
  5
23E
330
2
100
AcDbEntity
  8
0
  6
Continuous
 62
     7
100
AcDbLine
 10
423.9833546685614
 20
30.84857653972458
 30
0.0
 11
424.0833546692213
 21
30.74857654160459
 31
0.0
  0
LINE
  5
23F
330
2
100
AcDbEntity
  8
0
  6
Continuous
 62
     7
100
AcDbLine
 10
424.7833546687616
 20
30.54857654028459
 30
0.0
 11
424.8833546694217
 21
30.44857653962458
 31
0.0
  0
LINE
  5
240
330
2
100
AcDbEntity
  8
0
  6
Continuous
 62
     7
100
AcDbLine
 10
424.7833546687616
 20
30.54857654028459
 30
0.0
 11
424.0833546692213
 21
30.54857654028459
 31
0.0
  0
LINE
  5
241
330
2
100
AcDbEntity
  8
0
  6
Continuous
 62
     7
100
AcDbLine
 10
423.9833546685614
 20
30.84857653972458
 30
0.0
 11
422.5833546694812
 21
30.84857653972458
 31
0.0
  0
LINE
  5
242
330
2
100
AcDbEntity
  8
0
  6
Continuous
 62
     7
100
AcDbLine
 10
422.8833546689216
 20
32.84857654022459
 30
0.0
 11
422.5833546694812
 21
32.84857654022459
 31
0.0
  0
LINE
  5
243
330
2
100
AcDbEntity
  8
0
  6
Continuous
 62
     7
100
AcDbLine
 10
423.3833546696817
 20
32.9485765408846
 30
0.0
 11
422.8833546689216
 21
32.9485765408846
 31
0.0
  0
LINE
  5
244
330
2
100
AcDbEntity
  8
0
  6
Continuous
 62
     7
100
AcDbLine
 10
422.8833546689216
 20
33.14857653966458
 30
0.0
 11
423.5833546684617
 21
33.14857653966458
 31
0.0
  0
LINE
  5
245
330
2
100
AcDbEntity
  8
0
  6
Continuous
 62
     7
100
AcDbLine
 10
422.5833546694812
 20
34.34857653996456
 30
0.0
 11
421.7833546692816
 21
34.34857653996456
 31
0.0
  0
LINE
  5
246
330
2
100
AcDbEntity
  8
0
  6
Continuous
 62
     7
100
AcDbLine
 10
423.5833546684617
 20
35.2985765398846
 30
0.0
 11
422.8833546689216
 21
35.2985765398846
 31
0.0
  0
LINE
  5
247
330
2
100
AcDbEntity
  8
0
  6
Continuous
 62
     7
100
AcDbLine
 10
422.8833546689216
 20
35.49857654120458
 30
0.0
 11
423.3833546696817
 21
35.49857654120458
 31
0.0
  0
LINE
  5
248
330
2
100
AcDbEntity
  8
0
  6
Continuous
 62
     7
100
AcDbLine
 10
422.8833546689216
 20
35.59857654186457
 30
0.0
 11
422.5833546694812
 21
35.59857654186457
 31
0.0
  0
LINE
  5
249
102
{ACAD_REACTORS
330
300
102
}
330
2
100
AcDbEntity
  8
0
  6
Continuous
 62
     7
100
AcDbLine
 10
421.7833546692816
 20
35.84857653970456
 30
0.0
 11
422.5833546694812
 21
35.84857653970456
 31
0.0
  0
LINE
  5
24A
330
2
100
AcDbEntity
  8
0
  6
Continuous
 62
     7
100
AcDbLine
 10
438.6398075603216
 20
10.39597464084459
 30
0.0
 11
436.7898075620817
 21
10.39597464084459
 31
0.0
  0
LINE
  5
24B
330
2
100
AcDbEntity
  8
0
  6
Continuous
 62
     7
100
AcDbLine
 10
438.3398075608816
 20
10.49597464150459
 30
0.0
 11
437.0898075615214
 21
10.49597464150459
 31
0.0
  0
LINE
  5
24C
330
2
100
AcDbEntity
  8
0
  6
Continuous
 62
     7
100
AcDbLine
 10
436.8898075627416
 20
10.69597464282458
 30
0.0
 11
438.5398075622017
 21
10.69597464282458
 31
0.0
  0
LINE
  5
24D
330
2
100
AcDbEntity
  8
8_4_1_1
  6
Continuous
 62
     7
100
AcDbLine
 10
435.0706712873813
 20
9.039405794424586
 30
0.0
 11
435.0648075627615
 21
9.045276699624604
 31
0.0
  0
LINE
  5
24E
330
2
100
AcDbEntity
  8
8_4_1_1
  6
Continuous
 62
     7
100
AcDbLine
 10
435.0089265772417
 20
9.102303707744587
 30
0.0
 11
435.0706850872017
 21
9.039419642504588
 31
0.0
  0
LINE
  5
24F
330
2
100
AcDbEntity
  8
0
  6
Continuous
 62
     7
100
AcDbLine
 10
436.0148075626816
 20
11.79857150290458
 30
0.0
 11
435.4148075612616
 21
11.79857150290458
 31
0.0
  0
LINE
  5
250
330
2
100
AcDbEntity
  8
0
  6
Continuous
 62
     7
100
AcDbLine
 10
439.4148075622617
 20
11.79857150290458
 30
0.0
 11
440.0148075611416
 21
11.79857150290458
 31
0.0
  0
LINE
  5
251
330
2
100
AcDbEntity
  8
8_4_1_1
  6
Continuous
 62
     2
100
AcDbLine
 10
435.0648075627615
 20
11.8985699643246
 30
0.0
 11
436.0148075626816
 21
11.89857116828458
 31
0.0
  0
LINE
  5
252
330
2
100
AcDbEntity
  8
0
  6
Continuous
 62
     2
100
AcDbLine
 10
439.4148075622617
 20
11.89857116828458
 30
0.0
 11
440.3648075621815
 21
11.8985699643246
 31
0.0
  0
LINE
  5
253
330
2
100
AcDbEntity
  8
0
  6
Continuous
 62
     7
100
AcDbLine
 10
438.5398075622017
 20
12.8459746405046
 30
0.0
 11
436.8898075627416
 21
12.8459746405046
 31
0.0
  0
LINE
  5
254
330
2
100
AcDbEntity
  8
0
  6
Continuous
 62
     7
100
AcDbLine
 10
437.0898075615214
 20
13.04597464182459
 30
0.0
 11
438.3398075608816
 21
13.04597464182459
 31
0.0
  0
LINE
  5
255
330
2
100
AcDbEntity
  8
0
  6
Continuous
 62
     7
100
AcDbLine
 10
436.7898075620817
 20
13.14597464248459
 30
0.0
 11
438.6398075603216
 21
13.14597464248459
 31
0.0
  0
LINE
  5
256
330
2
100
AcDbEntity
  8
0
  6
Continuous
 62
     2
100
AcDbLine
 10
441.4648075618216
 20
13.39597464032457
 30
0.0
 11
440.0148075611416
 21
13.39597464032457
 31
0.0
  0
LINE
  5
257
330
2
100
AcDbEntity
  8
8_4_1_1
  6
Continuous
 62
     2
100
AcDbLine
 10
433.9648075605817
 20
13.39597464032457
 30
0.0
 11
435.4148075612616
 21
13.39597464032457
 31
0.0
  0
LINE
  5
258
330
2
100
AcDbEntity
  8
0
  6
Continuous
 62
     7
100
AcDbLine
 10
439.3213459610216
 20
13.45853724316459
 30
0.0
 11
438.6213459614816
 21
13.45853724316459
 31
0.0
  0
LINE
  5
259
330
2
100
AcDbEntity
  8
0
  6
Continuous
 62
     7
100
AcDbLine
 10
436.8082691609216
 20
13.45853724316459
 30
0.0
 11
436.1082691613815
 21
13.45853724316459
 31
0.0
  0
LINE
  5
25A
330
2
100
AcDbEntity
  8
8_4_1_1
  6
Continuous
 62
     2
100
AcDbLine
 10
436.1582691604415
 20
13.50853719650459
 30
0.0
 11
436.7582697028816
 21
13.50853719650459
 31
0.0
  0
LINE
  5
25B
330
2
100
AcDbEntity
  8
0
  6
Continuous
 62
     2
100
AcDbLine
 10
438.6713454195215
 20
13.50853719650459
 30
0.0
 11
439.2713459619613
 21
13.50853719650459
 31
0.0
  0
LINE
  5
25C
330
2
100
AcDbEntity
  8
0
  6
Continuous
 62
     2
100
AcDbLine
 10
439.3213459610216
 20
14.10853573742459
 30
0.0
 11
438.6713459630816
 21
14.10853719538457
 31
0.0
  0
LINE
  5
25D
330
2
100
AcDbEntity
  8
8_4_1_1
  6
Continuous
 62
     2
100
AcDbLine
 10
436.7582691593216
 20
14.10853719538457
 30
0.0
 11
436.1082691613815
 21
14.10853573742459
 31
0.0
  0
LINE
  5
25E
330
2
100
AcDbEntity
  8
0
  6
Continuous
 62
     7
100
AcDbLine
 10
436.1082691613815
 20
14.15853606414459
 30
0.0
 11
436.8082691609216
 21
14.15853733160458
 31
0.0
  0
LINE
  5
25F
330
2
100
AcDbEntity
  8
0
  6
Continuous
 62
     7
100
AcDbLine
 10
438.6213459614816
 20
14.15853733160458
 30
0.0
 11
439.3213459610216
 21
14.15853606414459
 31
0.0
  0
LWPOLYLINE
  5
260
330
2
100
AcDbEntity
  8
8_4_1_1
  6
Continuous
 62
     7
100
AcDbPolyline
 90
        5
 70
     0
 43
0.0
 10
434.2550447830014
 20
10.25201571362459
 10
434.3834471754217
 20
9.977038399724586
 10
434.5548668529017
 20
9.679797457504584
 10
434.7624798819217
 20
9.386667987884573
 10
435.0089265772417
 20
9.102303707744587
  0
LINE
  5
261
330
2
100
AcDbEntity
  8
0
  6
Continuous
 62
     2
100
AcDbLine
 10
438.8648154339017
 20
15.24857276646458
 30
0.0
 11
438.1220227234017
 21
15.24857417616458
 31
0.0
  0
LINE
  5
262
330
2
100
AcDbEntity
  8
8_4_1_1
  6
Continuous
 62
     2
100
AcDbLine
 10
437.3075610731816
 20
15.24857417616458
 30
0.0
 11
436.5647996885015
 21
15.24857276646458
 31
0.0
  0
LINE
  5
263
330
2
100
AcDbEntity
  8
8_4_1_1
  6
Continuous
 62
     2
100
AcDbLine
 10
434.2551445364216
 20
10.25205742804459
 30
0.0
 11
434.0945019849614
 21
10.72121100840458
 31
0.0
  0
LINE
  5
264
330
2
100
AcDbEntity
  8
0
  6
Continuous
 62
     7
100
AcDbLine
 10
440.0648075627416
 20
16.84857654130458
 30
0.0
 11
438.6648075611216
 21
16.84857654130458
 31
0.0
  0
LINE
  5
265
330
2
100
AcDbEntity
  8
8_4_1_1
  6
Continuous
 62
     2
100
AcDbLine
 10
433.9648075605817
 20
13.39597464032457
 30
0.0
 11
433.9647983708617
 21
11.69798545566458
 31
0.0
  0
LINE
  5
266
330
2
100
AcDbEntity
  8
0
  6
Continuous
 62
     7
100
AcDbLine
 10
435.4148075612616
 20
13.49597464098459
 30
0.0
 11
435.1648075608816
 21
14.49597464250458
 31
0.0
  0
LINE
  5
267
330
2
100
AcDbEntity
  8
0
  6
Continuous
 62
     7
100
AcDbLine
 10
438.6648075611216
 20
19.34857654002458
 30
0.0
 11
440.0648075627416
 21
19.34857654002458
 31
0.0
  0
LINE
  5
268
330
2
100
AcDbEntity
  8
8_4_1_1
  6
Continuous
 62
     2
100
AcDbLine
 10
435.0648075627615
 20
9.045358954984584
 30
0.0
 11
435.0648075627615
 21
11.89857073394457
 31
0.0
  0
LINE
  5
269
330
2
100
AcDbEntity
  8
0
  6
Continuous
 62
     7
100
AcDbLine
 10
435.1648075608816
 20
34.34857653996456
 30
0.0
 11
435.1648075608816
 21
19.87437951686458
 31
0.0
  0
LINE
  5
26A
330
2
100
AcDbEntity
  8
0
  6
Continuous
 62
     7
100
AcDbLine
 10
435.1648075608816
 20
14.49597464250458
 30
0.0
 11
435.1648075608816
 21
17.11756976760458
 31
0.0
  0
LINE
  5
26B
330
2
100
AcDbEntity
  8
8_4_1_1
  6
Continuous
 62
     2
100
AcDbLine
 10
435.2648075615416
 20
11.89857013704459
 30
0.0
 11
435.2648075615416
 21
8.862056916204586
 31
0.0
  0
LINE
  5
26C
330
2
100
AcDbEntity
  8
0
  6
Continuous
 62
     7
100
AcDbLine
 10
435.4148075612616
 20
11.79857150290458
 30
0.0
 11
435.4148075612616
 21
10.59748798432458
 31
0.0
  0
LINE
  5
26D
330
2
100
AcDbEntity
  8
8_4_1_1
  6
Continuous
 62
     2
100
AcDbLine
 10
435.9148075620216
 20
12.89597464210458
 30
0.0
 11
435.9148075620216
 21
11.89857073394457
 31
0.0
  0
LINE
  5
26E
330
2
100
AcDbEntity
  8
8_4_1_1
  6
Continuous
 62
     7
100
AcDbLine
 10
435.3087144739816
 20
13.39597448538459
 30
0.0
 11
435.3091102542416
 21
13.91876387160459
 31
0.0
  0
LINE
  5
26F
330
2
100
AcDbEntity
  8
8_4_1_1
  6
Continuous
 62
     7
100
AcDbLine
 10
435.4587133688016
 20
13.39404319130458
 30
0.0
 11
435.4587861398017
 21
13.49016811462458
 31
0.0
  0
LINE
  5
270
330
2
100
AcDbEntity
  8
0
  6
Continuous
 62
     7
100
AcDbLine
 10
436.0148075626816
 20
12.89597464210458
 30
0.0
 11
436.0148075626816
 21
11.79857150290458
 31
0.0
  0
LINE
  5
271
330
2
100
AcDbEntity
  8
0
  6
Continuous
 62
     7
100
AcDbLine
 10
436.1082691613815
 20
13.45853724316459
 30
0.0
 11
436.1082691613815
 21
14.15853606414459
 31
0.0
  0
LINE
  5
272
330
2
100
AcDbEntity
  8
8_4_1_1
  6
Continuous
 62
     2
100
AcDbLine
 10
436.1582691604415
 20
13.50853719650459
 30
0.0
 11
436.1582691604415
 21
14.10853629114459
 31
0.0
  0
LINE
  5
273
330
2
100
AcDbEntity
  8
8_4_1_1
  6
Continuous
 62
     2
100
AcDbLine
 10
436.2582693693816
 20
14.10853670008457
 30
0.0
 11
436.2582693693816
 21
13.50853724222458
 31
0.0
  0
LINE
  5
274
330
2
100
AcDbEntity
  8
8_4_1_1
  6
Continuous
 62
     2
100
AcDbLine
 10
436.5582690868814
 20
13.45853724316459
 30
0.0
 11
436.5582689979817
 21
13.50853727524458
 31
0.0
  0
LINE
  5
275
330
2
100
AcDbEntity
  8
8_4_1_1
  6
Continuous
 62
     2
100
AcDbLine
 10
436.5648017535215
 20
14.10853626574458
 30
0.0
 11
436.5648016620816
 21
14.15853689218459
 31
0.0
  0
LINE
  5
276
330
2
100
AcDbEntity
  8
8_4_1_1
  6
Continuous
 62
     2
100
AcDbLine
 10
436.5648002015816
 20
14.96449830032458
 30
0.0
 11
436.5647996885015
 21
15.24857276646458
 31
0.0
  0
LINE
  5
277
330
2
100
AcDbEntity
  8
8_4_1_1
  6
Continuous
 62
     2
100
AcDbLine
 10
436.6582693694816
 20
13.50853724222458
 30
0.0
 11
436.6582693694816
 21
14.10853670008457
 31
0.0
  0
LINE
  5
278
330
2
100
AcDbEntity
  8
0
  6
Continuous
 62
     7
100
AcDbLine
 10
436.7148075622217
 20
27.39857654108457
 30
0.0
 11
436.7148075622217
 21
28.3985765400646
 31
0.0
  0
LINE
  5
279
330
2
100
AcDbEntity
  8
8_4_1_1
  6
Continuous
 62
     2
100
AcDbLine
 10
436.7582691618615
 20
14.10853719538457
 30
0.0
 11
436.7582686716416
 21
13.45853724316459
 31
0.0
  0
LINE
  5
27A
330
2
100
AcDbEntity
  8
8_4_1_1
  6
Continuous
 62
     2
100
AcDbLine
 10
436.7648001063817
 20
15.24857322112458
 30
0.0
 11
436.7648008023417
 21
14.86361311474458
 31
0.0
  0
LINE
  5
27B
330
2
100
AcDbEntity
  8
8_4_1_1
  6
Continuous
 62
     2
100
AcDbLine
 10
436.7648020799616
 20
14.15853725286459
 30
0.0
 11
436.7648033474215
 21
13.45853724316459
 31
0.0
  0
LINE
  5
27C
330
2
100
AcDbEntity
  8
0
  6
Continuous
 62
     7
100
AcDbLine
 10
436.7898075620817
 20
10.39597464084459
 30
0.0
 11
436.7898075620817
 21
13.14597464248459
 31
0.0
  0
LINE
  5
27D
330
2
100
AcDbEntity
  8
0
  6
Continuous
 62
     7
100
AcDbLine
 10
436.7898075620817
 20
32.84857654022459
 30
0.0
 11
436.7898075620817
 21
35.59857654186457
 31
0.0
  0
LINE
  5
27E
330
2
100
AcDbEntity
  8
0
  6
Continuous
 62
     7
100
AcDbLine
 10
436.8082691609216
 20
14.15853733160458
 30
0.0
 11
436.8082691609216
 21
13.45853724316459
 31
0.0
  0
LINE
  5
27F
330
2
100
AcDbEntity
  8
0
  6
Continuous
 62
     7
100
AcDbLine
 10
436.8898075627416
 20
10.69597464282458
 30
0.0
 11
436.8898075627416
 21
12.8459746405046
 31
0.0
  0
LINE
  5
280
330
2
100
AcDbEntity
  8
0
  6
Continuous
 62
     7
100
AcDbLine
 10
436.8898075627416
 20
33.14857653966458
 30
0.0
 11
436.8898075627416
 21
35.2985765398846
 31
0.0
  0
LINE
  5
281
330
2
100
AcDbEntity
  8
0
  6
Continuous
 62
     7
100
AcDbLine
 10
437.0898075615214
 20
35.49857654120458
 30
0.0
 11
437.0898075615214
 21
32.9485765408846
 31
0.0
  0
LINE
  5
282
330
2
100
AcDbEntity
  8
0
  6
Continuous
 62
     7
100
AcDbLine
 10
437.0898075615214
 20
13.04597464182459
 30
0.0
 11
437.0898075615214
 21
10.49597464150459
 31
0.0
  0
LINE
  5
283
330
2
100
AcDbEntity
  8
8_4_1_1
  6
Continuous
 62
     2
100
AcDbLine
 10
437.1648006221017
 20
14.9650775778046
 30
0.0
 11
437.1648001090216
 21
15.24857394502459
 31
0.0
  0
LINE
  5
284
330
2
100
AcDbEntity
  8
0
  6
Continuous
 62
     7
100
AcDbLine
 10
437.5148075624217
 20
28.3985765400646
 30
0.0
 11
437.5148075624217
 21
27.39857654108457
 31
0.0
  0
LINE
  5
285
330
2
100
AcDbEntity
  8
0
  6
Continuous
 62
     7
100
AcDbLine
 10
437.9148075625217
 20
27.39857654108457
 30
0.0
 11
437.9148075625217
 21
28.3985765400646
 31
0.0
  0
LINE
  5
286
330
2
100
AcDbEntity
  8
0
  6
Continuous
 62
     2
100
AcDbLine
 10
438.2648150159216
 20
15.24857394502459
 30
0.0
 11
438.2648145003016
 21
14.96448179032459
 31
0.0
  0
LINE
  5
287
330
2
100
AcDbEntity
  8
0
  6
Continuous
 62
     7
100
AcDbLine
 10
438.3398075608816
 20
10.49597464150459
 30
0.0
 11
438.3398075608816
 21
13.04597464182459
 31
0.0
  0
LINE
  5
288
330
2
100
AcDbEntity
  8
0
  6
Continuous
 62
     7
100
AcDbLine
 10
438.3398075608816
 20
32.9485765408846
 30
0.0
 11
438.3398075608816
 21
35.49857654120458
 31
0.0
  0
LINE
  5
289
330
2
100
AcDbEntity
  8
0
  6
Continuous
 62
     7
100
AcDbLine
 10
438.5398075622017
 20
35.2985765398846
 30
0.0
 11
438.5398075622017
 21
33.14857653966458
 31
0.0
  0
LINE
  5
28A
330
2
100
AcDbEntity
  8
0
  6
Continuous
 62
     7
100
AcDbLine
 10
438.5398075622017
 20
12.8459746405046
 30
0.0
 11
438.5398075622017
 21
10.69597464282458
 31
0.0
  0
LINE
  5
28B
330
2
100
AcDbEntity
  8
0
  6
Continuous
 62
     7
100
AcDbLine
 10
438.6213459614816
 20
13.45853724316459
 30
0.0
 11
438.6213459614816
 21
14.15853733160458
 31
0.0
  0
LINE
  5
28C
330
2
100
AcDbEntity
  8
0
  6
Continuous
 62
     7
100
AcDbLine
 10
438.6398075603216
 20
35.59857654186457
 30
0.0
 11
438.6398075603216
 21
32.84857654022459
 31
0.0
  0
LINE
  5
28D
330
2
100
AcDbEntity
  8
0
  6
Continuous
 62
     7
100
AcDbLine
 10
438.6398075603216
 20
13.14597464248459
 30
0.0
 11
438.6398075603216
 21
10.39597464084459
 31
0.0
  0
LINE
  5
28E
330
2
100
AcDbEntity
  8
0
  6
Continuous
 62
     7
100
AcDbLine
 10
438.6648075611216
 20
16.84857654130458
 30
0.0
 11
438.6648075611216
 21
19.34857654002458
 31
0.0
  0
LINE
  5
28F
330
2
100
AcDbEntity
  8
0
  6
Continuous
 62
     2
100
AcDbLine
 10
438.6648117775216
 20
13.45853724316459
 30
0.0
 11
438.6648130449817
 21
14.15853725286459
 31
0.0
  0
LINE
  5
290
330
2
100
AcDbEntity
  8
0
  6
Continuous
 62
     2
100
AcDbLine
 10
438.6648143200615
 20
14.86382994946456
 30
0.0
 11
438.6648150185616
 21
15.24857322112458
 31
0.0
  0
LINE
  5
291
330
2
100
AcDbEntity
  8
0
  6
Continuous
 62
     2
100
AcDbLine
 10
438.6713464507616
 20
13.45853724316459
 30
0.0
 11
438.6713459605417
 21
14.10853713442457
 31
0.0
  0
LINE
  5
292
330
2
100
AcDbEntity
  8
0
  6
Continuous
 62
     7
100
AcDbLine
 10
438.7148075627216
 20
28.3985765400646
 30
0.0
 11
438.7148075627216
 21
27.39857654108457
 31
0.0
  0
LINE
  5
293
330
2
100
AcDbEntity
  8
0
  6
Continuous
 62
     2
100
AcDbLine
 10
438.7713457529216
 20
14.10853670008457
 30
0.0
 11
438.7713457529216
 21
13.50853724222458
 31
0.0
  0
LINE
  5
294
330
2
100
AcDbEntity
  8
0
  6
Continuous
 62
     2
100
AcDbLine
 10
438.8648154339017
 20
15.24857276646458
 30
0.0
 11
438.8648149208217
 21
14.96509390746457
 31
0.0
  0
LINE
  5
295
330
2
100
AcDbEntity
  8
0
  6
Continuous
 62
     2
100
AcDbLine
 10
438.8648134603216
 20
14.15853689218459
 30
0.0
 11
438.8648133714217
 21
14.10853626574458
 31
0.0
  0
LINE
  5
296
330
2
100
AcDbEntity
  8
0
  6
Continuous
 62
     2
100
AcDbLine
 10
438.8713461269616
 20
13.50853727524458
 30
0.0
 11
438.8713460355216
 21
13.45853724316459
 31
0.0
  0
LINE
  5
297
330
2
100
AcDbEntity
  8
0
  6
Continuous
 62
     2
100
AcDbLine
 10
439.1713457530216
 20
13.50853724222458
 30
0.0
 11
439.1713457530216
 21
14.10853670008457
 31
0.0
  0
LINE
  5
298
330
2
100
AcDbEntity
  8
0
  6
Continuous
 62
     2
100
AcDbLine
 10
439.2713459619613
 20
14.10853629114459
 30
0.0
 11
439.2713459619613
 21
13.50853719650459
 31
0.0
  0
LINE
  5
299
330
2
100
AcDbEntity
  8
0
  6
Continuous
 62
     7
100
AcDbLine
 10
439.3213459610216
 20
14.15853606414459
 30
0.0
 11
439.3213459610216
 21
13.45853724316459
 31
0.0
  0
LINE
  5
29A
330
2
100
AcDbEntity
  8
0
  6
Continuous
 62
     7
100
AcDbLine
 10
439.4148075622617
 20
11.79857150290458
 30
0.0
 11
439.4148075622617
 21
12.89597464210458
 31
0.0
  0
LINE
  5
29B
330
2
100
AcDbEntity
  8
0
  6
Continuous
 62
     2
100
AcDbLine
 10
439.5148075603816
 20
12.89597464210458
 30
0.0
 11
439.5148075603816
 21
11.89857124448459
 31
0.0
  0
LINE
  5
29C
330
2
100
AcDbEntity
  8
0
  6
Continuous
 62
     7
100
AcDbLine
 10
439.9708289826016
 20
13.49016855404459
 30
0.0
 11
439.9709017536017
 21
13.39404319130458
 31
0.0
  0
LINE
  5
29D
330
2
100
AcDbEntity
  8
0
  6
Continuous
 62
     7
100
AcDbLine
 10
440.1205048681616
 20
13.91876387160459
 30
0.0
 11
440.1209006484217
 21
13.39597448538459
 31
0.0
  0
LINE
  5
29E
330
2
100
AcDbEntity
  8
0
  6
Continuous
 62
     7
100
AcDbLine
 10
440.0148075611416
 20
11.79857150290458
 30
0.0
 11
440.0148075611416
 21
10.59761028786458
 31
0.0
  0
LINE
  5
29F
330
2
100
AcDbEntity
  8
0
  6
Continuous
 62
     7
100
AcDbLine
 10
440.0648075627416
 20
19.34857654002458
 30
0.0
 11
440.0648075627416
 21
16.84857654130458
 31
0.0
  0
LINE
  5
2A0
330
2
100
AcDbEntity
  8
0
  6
Continuous
 62
     2
100
AcDbLine
 10
440.1648075608616
 20
8.862056916204586
 30
0.0
 11
440.1648075608616
 21
11.89857013704459
 31
0.0
  0
LINE
  5
2A1
330
2
100
AcDbEntity
  8
0
  6
Continuous
 62
     7
100
AcDbLine
 10
440.2648075615217
 20
26.41756976548459
 30
0.0
 11
440.2648075615217
 21
14.49597464250458
 31
0.0
  0
LINE
  5
2A2
330
2
100
AcDbEntity
  8
0
  6
Continuous
 62
     7
100
AcDbLine
 10
440.2648075615217
 20
29.17437951728459
 30
0.0
 11
440.2648075615217
 21
34.34857653996456
 31
0.0
  0
LINE
  5
2A3
330
2
100
AcDbEntity
  8
0
  6
Continuous
 62
     2
100
AcDbLine
 10
440.3648075621815
 20
11.89857073394457
 30
0.0
 11
440.3648075621815
 21
9.045358954984584
 31
0.0
  0
LINE
  5
2A4
330
2
100
AcDbEntity
  8
0
  6
Continuous
 62
     2
100
AcDbLine
 10
441.4648167515416
 20
11.69798545566458
 30
0.0
 11
441.4648075618216
 21
13.39597464032457
 31
0.0
  0
LINE
  5
2A5
330
2
100
AcDbEntity
  8
0
  6
Continuous
 62
     7
100
AcDbLine
 10
440.2648075615217
 20
14.49597464250458
 30
0.0
 11
440.0148075611416
 21
13.49597464098459
 31
0.0
  0
LINE
  5
2A6
330
2
100
AcDbEntity
  8
0
  6
Continuous
 62
     7
100
AcDbLine
 10
438.7148075627216
 20
27.39857654108457
 30
0.0
 11
437.9148075625217
 21
27.39857654108457
 31
0.0
  0
LINE
  5
2A7
330
2
100
AcDbEntity
  8
0
  6
Continuous
 62
     7
100
AcDbLine
 10
437.5148075624217
 20
27.39857654108457
 30
0.0
 11
436.7148075622217
 21
27.39857654108457
 31
0.0
  0
LINE
  5
2A8
330
2
100
AcDbEntity
  8
0
  6
Continuous
 62
     7
100
AcDbLine
 10
436.7148075622217
 20
28.3985765400646
 30
0.0
 11
437.5148075624217
 21
28.3985765400646
 31
0.0
  0
LINE
  5
2A9
330
2
100
AcDbEntity
  8
0
  6
Continuous
 62
     7
100
AcDbLine
 10
437.9148075625217
 20
28.3985765400646
 30
0.0
 11
438.7148075627216
 21
28.3985765400646
 31
0.0
  0
LINE
  5
2AA
330
2
100
AcDbEntity
  8
0
  6
Continuous
 62
     2
100
AcDbLine
 10
441.3351139705617
 20
10.72121408688458
 30
0.0
 11
441.1744712819417
 21
10.25205908920457
 31
0.0
  0
LWPOLYLINE
  5
2AB
330
2
100
AcDbEntity
  8
0
  6
Continuous
 62
     2
100
AcDbPolyline
 90
        6
 70
     0
 43
0.0
 10
440.3589302333217
 20
9.039419840624582
 10
440.4206855505016
 20
9.10230058608459
 10
440.6671329265415
 20
9.386665026244607
 10
440.8747465397616
 20
9.679794747324583
 10
441.0461667074616
 20
9.977036001964583
 10
441.1745710328218
 20
10.2520173722446
  0
LINE
  5
2AC
330
2
100
AcDbEntity
  8
0
  6
Continuous
 62
     7
100
AcDbLine
 10
440.3589440331415
 20
9.03940599254458
 30
0.0
 11
440.3648075621815
 21
9.045276699624604
 31
0.0
  0
LINE
  5
2AD
330
2
100
AcDbEntity
  8
0
  6
Continuous
 62
     7
100
AcDbLine
 10
438.6398075603216
 20
32.84857654022459
 30
0.0
 11
436.7898075620817
 21
32.84857654022459
 31
0.0
  0
LINE
  5
2AE
330
2
100
AcDbEntity
  8
0
  6
Continuous
 62
     7
100
AcDbLine
 10
438.3398075608816
 20
32.9485765408846
 30
0.0
 11
437.0898075615214
 21
32.9485765408846
 31
0.0
  0
LINE
  5
2AF
330
2
100
AcDbEntity
  8
0
  6
Continuous
 62
     7
100
AcDbLine
 10
436.8898075627416
 20
33.14857653966458
 30
0.0
 11
438.5398075622017
 21
33.14857653966458
 31
0.0
  0
LINE
  5
2B0
330
2
100
AcDbEntity
  8
0
  6
Continuous
 62
     7
100
AcDbLine
 10
438.5398075622017
 20
35.2985765398846
 30
0.0
 11
436.8898075627416
 21
35.2985765398846
 31
0.0
  0
LINE
  5
2B1
330
2
100
AcDbEntity
  8
0
  6
Continuous
 62
     7
100
AcDbLine
 10
437.0898075615214
 20
35.49857654120458
 30
0.0
 11
438.3398075608816
 21
35.49857654120458
 31
0.0
  0
LINE
  5
2B2
330
2
100
AcDbEntity
  8
0
  6
Continuous
 62
     7
100
AcDbLine
 10
436.7898075620817
 20
35.59857654186457
 30
0.0
 11
438.6398075603216
 21
35.59857654186457
 31
0.0
  0
LINE
  5
2B3
330
2
100
AcDbEntity
  8
0
  6
Continuous
 62
     7
100
AcDbLine
 10
438.7648075617817
 20
35.84857653970456
 30
0.0
 11
436.6648075606216
 21
35.84857653970456
 31
0.0
  0
ARC
  5
2B4
330
2
100
AcDbEntity
  8
8_4_1_1
  6
Continuous
 62
     2
100
AcDbCircle
 10
406.3410802554416
 20
11.59276791400459
 30
0.0
 40
2.90986990034
100
AcDbArc
 50
320.106647958201
 51
330.4989282617992
  0
ARC
  5
2B5
330
2
100
AcDbEntity
  8
0
  6
Continuous
 62
     2
100
AcDbCircle
 10
405.9062579526217
 20
11.59276791654458
 30
0.0
 40
2.90986990034
100
AcDbArc
 50
209.5010717776993
 51
219.8933520823984
  0
ARC
  5
2B6
330
2
100
AcDbEntity
  8
0
  6
Continuous
 62
     7
100
AcDbCircle
 10
406.1236690900616
 20
11.69866410556458
 30
0.0
 40
2.54995454702
100
AcDbArc
 50
305.4062767566005
 51
334.4186755736008
  0
ARC
  5
2B7
330
2
100
AcDbEntity
  8
0
  6
Continuous
 62
     7
100
AcDbCircle
 10
406.1236690900616
 20
11.69866410556458
 30
0.0
 40
2.54995454702
100
AcDbArc
 50
205.5813264844996
 51
234.5937289846997
  0
ARC
  5
2B8
330
2
100
AcDbEntity
  8
0
  6
Continuous
 62
     7
100
AcDbCircle
 10
405.0736691047216
 20
34.34857653996456
 30
0.0
 40
1.499999999739998
100
AcDbArc
 50
90.0
 51
180.0
  0
ARC
  5
2B9
330
2
100
AcDbEntity
  8
0
  6
Continuous
 62
     7
100
AcDbCircle
 10
407.1736691058815
 20
34.34857653996456
 30
0.0
 40
1.499999999739998
100
AcDbArc
 50
0.0
 51
90.0
  0
ARC
  5
2BA
330
2
100
AcDbEntity
  8
0
  6
Continuous
 62
     7
100
AcDbCircle
 10
403.6236691040415
 20
27.79597464138458
 30
0.0
 40
0.9499999999199998
100
AcDbArc
 50
288.0800126247994
 51
71.9199873756014
  0
ARC
  5
2BB
330
2
100
AcDbEntity
  8
0
  6
Continuous
 62
     7
100
AcDbCircle
 10
408.6236691040217
 20
18.49597464096456
 30
0.0
 40
0.9499999999199998
100
AcDbArc
 50
108.0800126242992
 51
251.9199873756015
  0
ARC
  5
2BC
330
2
100
AcDbEntity
  8
0
  6
Continuous
 62
     7
100
AcDbCircle
 10
406.1236691053015
 20
9.195974640544584
 30
0.0
 40
0.9499999999199998
100
AcDbArc
 50
35.01139778950157
 51
144.9886022102018
  0
ARC
  5
2BD
330
2
100
AcDbEntity
  8
0
  6
Continuous
 62
     7
100
AcDbCircle
 10
404.0736691057416
 20
26.41756976548459
 30
0.0
 40
0.5000000007600001
100
AcDbArc
 50
108.0800126236002
 51
180.0
  0
ARC
  5
2BE
330
2
100
AcDbEntity
  8
0
  6
Continuous
 62
     7
100
AcDbCircle
 10
404.0736691057416
 20
29.17437951728459
 30
0.0
 40
0.5000000007600001
100
AcDbArc
 50
180.0
 51
251.9199873753994
  0
ARC
  5
2BF
330
2
100
AcDbEntity
  8
0
  6
Continuous
 62
     7
100
AcDbCircle
 10
408.1736691048616
 20
19.87437951686458
 30
0.0
 40
0.5000000007600001
100
AcDbArc
 50
288.0800126247001
 51
0.0
  0
ARC
  5
2C0
330
2
100
AcDbEntity
  8
0
  6
Continuous
 62
     7
100
AcDbCircle
 10
408.1736691048616
 20
17.11756976760458
 30
0.0
 40
0.5000000007600001
100
AcDbArc
 50
0.0
 51
71.91998737549866
  0
ARC
  5
2C1
330
2
100
AcDbEntity
  8
0
  6
Continuous
 62
     7
100
AcDbCircle
 10
407.3112740986416
 20
10.02789673844457
 30
0.0
 40
0.5000000007600001
100
AcDbArc
 50
215.0113977772007
 51
305.4084294002981
  0
ARC
  5
2C2
330
2
100
AcDbEntity
  8
0
  6
Continuous
 62
     7
100
AcDbCircle
 10
404.9360641094216
 20
10.02789673844457
 30
0.0
 40
0.5000000007600001
100
AcDbArc
 50
234.591597306199
 51
324.9886022234004
  0
ARC
  5
2C3
330
2
100
AcDbEntity
  8
0
  6
Continuous
 62
     7
100
AcDbCircle
 10
405.2736691060416
 20
15.29857581098458
 30
0.0
 40
0.4499999991600001
100
AcDbArc
 50
353.4612337683
 51
228.0754186267985
  0
ARC
  5
2C4
330
2
100
AcDbEntity
  8
0
  6
Continuous
 62
     7
100
AcDbCircle
 10
406.9736691045616
 20
15.29857581098458
 30
0.0
 40
0.4499999991600001
100
AcDbArc
 50
311.9725450962989
 51
186.5470204501997
  0
ARC
  5
2C5
330
2
100
AcDbEntity
  8
0
  6
Continuous
 62
     7
100
AcDbCircle
 10
423.3833546696817
 20
33.14857653966458
 30
0.0
 40
0.19999999878
100
AcDbArc
 50
270.0
 51
0.0
  0
ARC
  5
2C6
330
2
100
AcDbEntity
  8
0
  6
Continuous
 62
     7
100
AcDbCircle
 10
423.3833546696817
 20
35.2985765398846
 30
0.0
 40
0.19999999878
100
AcDbArc
 50
0.0
 51
90.0
  0
ARC
  5
2C7
330
2
100
AcDbEntity
  8
0
  6
Continuous
 62
     7
100
AcDbCircle
 10
423.3833546696817
 20
10.69597464282458
 30
0.0
 40
0.19999999878
100
AcDbArc
 50
270.0
 51
0.0
  0
ARC
  5
2C8
330
2
100
AcDbEntity
  8
0
  6
Continuous
 62
     7
100
AcDbCircle
 10
423.3833546696817
 20
12.8459746405046
 30
0.0
 40
0.19999999878
100
AcDbArc
 50
0.0
 51
90.0
  0
ARC
  5
2C9
330
2
100
AcDbEntity
  8
0
  6
Continuous
 62
     2
100
AcDbCircle
 10
437.7038222186816
 20
11.70073435288458
 30
0.0
 40
3.760986298179997
100
AcDbArc
 50
344.9040803249006
 51
359.9581226291001
  0
ARC
  5
2CA
330
2
100
AcDbEntity
  8
0
  6
Continuous
 62
     7
100
AcDbCircle
 10
435.2148075624817
 20
18.49597464096456
 30
0.0
 40
0.9499999999199998
100
AcDbArc
 50
288.0800126243985
 51
71.91998737580012
  0
ARC
  5
2CB
330
2
100
AcDbEntity
  8
0
  6
Continuous
 62
     7
100
AcDbCircle
 10
435.4148075612616
 20
12.89597464210458
 30
0.0
 40
0.59999999888
100
AcDbArc
 50
0.0
 51
90.0
  0
ARC
  5
2CC
330
2
100
AcDbEntity
  8
8_4_1_1
  6
Continuous
 62
     2
100
AcDbCircle
 10
435.4148075612616
 20
12.89597464210458
 30
0.0
 40
0.5000000007600001
100
AcDbArc
 50
0.0000000020000346
 51
90.0000000008989
  0
ARC
  5
2CD
330
2
100
AcDbEntity
  8
0
  6
Continuous
 62
     7
100
AcDbCircle
 10
436.5272025678613
 20
10.02789673844457
 30
0.0
 40
0.5000000007600001
100
AcDbArc
 50
234.5915717969993
 51
324.9886022232989
  0
ARC
  5
2CE
330
2
100
AcDbEntity
  8
0
  6
Continuous
 62
     7
100
AcDbCircle
 10
435.6648075616416
 20
17.11756976760458
 30
0.0
 40
0.5000000007600001
100
AcDbArc
 50
108.0800126243986
 51
180.0
  0
ARC
  5
2CF
330
2
100
AcDbEntity
  8
0
  6
Continuous
 62
     7
100
AcDbCircle
 10
435.6648075616416
 20
19.87437951686458
 30
0.0
 40
0.5000000007600001
100
AcDbArc
 50
180.0
 51
251.9199873752006
  0
CIRCLE
  5
2D0
330
2
100
AcDbEntity
  8
0
  6
Continuous
 62
     7
100
AcDbCircle
 10
436.8648075619416
 20
15.29857581098458
 30
0.0
 40
0.4499999991600001
  0
ARC
  5
2D1
330
2
100
AcDbEntity
  8
0
  6
Continuous
 62
     7
100
AcDbCircle
 10
437.0898075615214
 20
10.69597464282458
 30
0.0
 40
0.19999999878
100
AcDbArc
 50
180.0
 51
270.0
  0
ARC
  5
2D2
330
2
100
AcDbEntity
  8
0
  6
Continuous
 62
     7
100
AcDbCircle
 10
437.0898075615214
 20
12.8459746405046
 30
0.0
 40
0.19999999878
100
AcDbArc
 50
90.0
 51
180.0
  0
ARC
  5
2D3
330
2
100
AcDbEntity
  8
0
  6
Continuous
 62
     7
100
AcDbCircle
 10
436.6648075606216
 20
34.34857653996456
 30
0.0
 40
1.499999999739998
100
AcDbArc
 50
90.0
 51
180.0
  0
ARC
  5
2D4
330
2
100
AcDbEntity
  8
0
  6
Continuous
 62
     7
100
AcDbCircle
 10
437.0898075615214
 20
33.14857653966458
 30
0.0
 40
0.19999999878
100
AcDbArc
 50
180.0
 51
270.0
  0
ARC
  5
2D5
330
2
100
AcDbEntity
  8
0
  6
Continuous
 62
     7
100
AcDbCircle
 10
437.0898075615214
 20
35.2985765398846
 30
0.0
 40
0.19999999878
100
AcDbArc
 50
90.0
 51
180.0
  0
ARC
  5
2D6
330
2
100
AcDbEntity
  8
8_4_1_1
  6
Continuous
 62
     2
100
AcDbCircle
 10
437.7256111616416
 20
11.70582461702458
 30
0.0
 40
3.762763787639998
100
AcDbArc
 50
202.7286504735013
 51
224.9963619135986
  0
ARC
  5
2D7
330
2
100
AcDbEntity
  8
8_4_1_1
  6
Continuous
 62
     2
100
AcDbCircle
 10
437.7257929723014
 20
11.70073436050459
 30
0.0
 40
3.760986369299998
100
AcDbArc
 50
180.0418774755001
 51
195.0959680557004
  0
ARC
  5
2D8
330
2
100
AcDbEntity
  8
0
  6
Continuous
 62
     7
100
AcDbCircle
 10
437.7148075764417
 20
11.69866410556458
 30
0.0
 40
2.54995454702
100
AcDbArc
 50
305.4062712498017
 51
334.4186735155004
  0
ARC
  5
2D9
330
2
100
AcDbEntity
  8
0
  6
Continuous
 62
     7
100
AcDbCircle
 10
437.7148075764417
 20
11.69866410556458
 30
0.0
 40
2.54995454702
100
AcDbArc
 50
205.581324426399
 51
234.5937234782005
  0
ARC
  5
2DA
330
2
100
AcDbEntity
  8
0
  6
Continuous
 62
     7
100
AcDbCircle
 10
437.7148075612016
 20
9.195974640544584
 30
0.0
 40
0.9499999999199998
100
AcDbArc
 50
35.01139778950157
 51
144.9886022102993
  0
ARC
  5
2DB
330
2
100
AcDbEntity
  8
0
  6
Continuous
 62
     7
100
AcDbCircle
 10
440.0148075611416
 20
12.89597464210458
 30
0.0
 40
0.59999999888
100
AcDbArc
 50
90.0
 51
180.0
  0
ARC
  5
2DC
330
2
100
AcDbEntity
  8
0
  6
Continuous
 62
     2
100
AcDbCircle
 10
440.0148075611416
 20
12.89597464210458
 30
0.0
 40
0.5000000007600001
100
AcDbArc
 50
89.99999999910109
 51
179.9999999981
  0
ARC
  5
2DD
330
2
100
AcDbEntity
  8
0
  6
Continuous
 62
     7
100
AcDbCircle
 10
438.9024125570816
 20
10.02789673844457
 30
0.0
 40
0.5000000007600001
100
AcDbArc
 50
215.0113977772007
 51
305.4084038899992
  0
CIRCLE
  5
2DE
330
2
100
AcDbEntity
  8
0
  6
Continuous
 62
     7
100
AcDbCircle
 10
438.5648075604616
 20
15.29857581098458
 30
0.0
 40
0.4499999991600001
  0
CIRCLE
  5
2DF
330
2
100
AcDbEntity
  8
0
  6
Continuous
 62
     7
100
AcDbCircle
 10
437.7148075612016
 20
11.27597464106457
 30
0.0
 40
0.25000000038
  0
ARC
  5
2E0
330
2
100
AcDbEntity
  8
0
  6
Continuous
 62
     7
100
AcDbCircle
 10
438.3398075608816
 20
10.69597464282458
 30
0.0
 40
0.19999999878
100
AcDbArc
 50
270.0
 51
0.0
  0
ARC
  5
2E1
330
2
100
AcDbEntity
  8
0
  6
Continuous
 62
     7
100
AcDbCircle
 10
438.3398075608816
 20
12.8459746405046
 30
0.0
 40
0.19999999878
100
AcDbArc
 50
0.0
 51
90.0
  0
ARC
  5
2E2
330
2
100
AcDbEntity
  8
0
  6
Continuous
 62
     7
100
AcDbCircle
 10
438.7648075617817
 20
34.34857653996456
 30
0.0
 40
1.499999999739998
100
AcDbArc
 50
0.0
 51
90.0
  0
ARC
  5
2E3
330
2
100
AcDbEntity
  8
0
  6
Continuous
 62
     7
100
AcDbCircle
 10
440.2148075624616
 20
27.79597464138458
 30
0.0
 40
0.9499999999199998
100
AcDbArc
 50
108.0800126242992
 51
251.9199873761016
  0
CIRCLE
  5
2E4
330
2
100
AcDbEntity
  8
0
  6
Continuous
 62
     7
100
AcDbCircle
 10
437.7148075612016
 20
30.09857654112459
 30
0.0
 40
0.75000000114
  0
CIRCLE
  5
2E5
330
2
100
AcDbEntity
  8
0
  6
Continuous
 62
     7
100
AcDbCircle
 10
437.7148075612016
 20
30.09857654112459
 30
0.0
 40
0.6500000004800001
  0
ARC
  5
2E6
330
2
100
AcDbEntity
  8
0
  6
Continuous
 62
     7
100
AcDbCircle
 10
439.7648075607617
 20
29.17437951728459
 30
0.0
 40
0.5000000007600001
100
AcDbArc
 50
288.0800126247001
 51
0.0
  0
ARC
  5
2E7
330
2
100
AcDbEntity
  8
0
  6
Continuous
 62
     7
100
AcDbCircle
 10
439.7648075607617
 20
26.41756976548459
 30
0.0
 40
0.5000000007600001
100
AcDbArc
 50
0.0
 51
71.91998737450167
  0
CIRCLE
  5
2E8
330
2
100
AcDbEntity
  8
0
  6
Continuous
 62
     7
100
AcDbCircle
 10
437.7148075612016
 20
30.09857654112459
 30
0.0
 40
0.4499999991600001
  0
CIRCLE
  5
2E9
330
2
100
AcDbEntity
  8
0
  6
Continuous
 62
     7
100
AcDbCircle
 10
437.7148075612016
 20
30.09857654112459
 30
0.0
 40
0.35000000104
  0
CIRCLE
  5
2EA
330
2
100
AcDbEntity
  8
0
  6
Continuous
 62
     7
100
AcDbCircle
 10
437.7148075612016
 20
34.71857654164458
 30
0.0
 40
0.25000000038
  0
ARC
  5
2EB
330
2
100
AcDbEntity
  8
0
  6
Continuous
 62
     7
100
AcDbCircle
 10
438.3398075608816
 20
33.14857653966458
 30
0.0
 40
0.19999999878
100
AcDbArc
 50
270.0
 51
0.0
  0
ARC
  5
2EC
330
2
100
AcDbEntity
  8
0
  6
Continuous
 62
     7
100
AcDbCircle
 10
438.3398075608816
 20
35.2985765398846
 30
0.0
 40
0.19999999878
100
AcDbArc
 50
0.0
 51
90.0
  0
SPLINE
  5
2ED
330
2
100
AcDbEntity
  8
8_4_1_1
  6
Continuous
 62
     2
100
AcDbSpline
210
0.0
220
0.0
230
1.0
 70
     8
 71
     3
 72
    24
 73
    20
 74
     0
 42
0.0000000001
 43
0.0000000001
 40
0.0
 40
0.0
 40
0.0
 40
0.0
 40
0.0012422796
 40
0.0030070213
 40
0.0055797305
 40
0.0131435406
 40
0.0238613088
 40
0.0376215971
 40
0.0542722769
 40
0.0955630561
 40
0.1462613378
 40
0.2048747328
 40
0.2700195851
 40
0.340479329
 40
0.4152117263
 40
0.4933441458
 40
0.6570280180000001
 40
0.8270000879999999
 40
1.0
 40
1.0
 40
1.0
 40
1.0
 10
408.5736691049616
 20
8.862056916204586
 30
0.0
 10
408.5736691049616
 20
8.861947945124576
 30
0.0
 10
408.5741246768217
 20
8.862104670744594
 30
0.0
 10
408.5744289383415
 20
8.862315191024601
 30
0.0
 10
408.5753765437615
 20
8.862909109064583
 30
0.0
 10
408.5767944200216
 20
8.863976536444575
 30
0.0
 10
408.5790458531617
 20
8.865703441804591
 30
0.0
 10
408.5818519715017
 20
8.86795483430459
 30
0.0
 10
408.5867254339416
 20
8.871938407744599
 30
0.0
 10
408.5940231511215
 20
8.87806279478459
 30
0.0
 10
408.6040600881217
 20
8.886654454004592
 30
0.0
 10
408.6156029301616
 20
8.896701324944562
 30
0.0
 10
408.6283738774416
 20
8.907977627004591
 30
0.0
 10
408.6421231920816
 20
8.920281262544596
 30
0.0
 10
408.6566380220816
 20
8.933437344944586
 30
0.0
 10
408.6770950576216
 20
8.952213273864581
 30
0.0
 10
408.7034777709216
 20
8.976886910064585
 30
0.0
 10
408.7355656569616
 20
9.007638357324598
 30
0.0
 10
408.7570302597016
 20
9.028719961084583
 30
0.0
 10
408.7677915793014
 20
9.039419683144592
 30
0.0
  0
SPLINE
  5
2EE
330
2
100
AcDbEntity
  8
8_4_1_1
  6
Continuous
 62
     2
100
AcDbSpline
210
0.0
220
0.0
230
1.0
 70
     8
 71
     3
 72
    15
 73
    11
 74
     0
 42
0.0000000001
 43
0.0000000001
 40
0.0
 40
0.0
 40
0.0
 40
0.0
 40
0.1237792291
 40
0.2602561054
 40
0.3896745740999999
 40
0.5138835727000001
 40
0.6359296942000002
 40
0.7574165403000001
 40
0.8782059661999998
 40
1.0
 40
1.0
 40
1.0
 40
1.0
 10
408.8736691044013
 20
10.15983554746459
 30
0.0
 10
408.9055824518017
 20
10.21638182756458
 30
0.0
 10
408.9683317929016
 20
10.33724837018457
 30
0.0
 10
409.0477429904415
 20
10.52359436528458
 30
0.0
 10
409.1118082141017
 20
10.7150771674846
 30
0.0
 10
409.1593268439813
 20
10.90418180578459
 30
0.0
 10
409.1929728879414
 20
11.09460754888459
 30
0.0
 10
409.2148226004016
 20
11.28980313258458
 30
0.0
 10
409.2267263815217
 20
11.49087093212458
 30
0.0
 10
409.2289553051816
 20
11.62835622992458
 30
0.0
 10
409.2289553051816
 20
11.69833714914458
 30
0.0
  0
SPLINE
  5
2EF
330
2
100
AcDbEntity
  8
8_4_1_1
  6
Continuous
 62
     2
100
AcDbSpline
210
0.0
220
0.0
230
1.0
 70
     8
 71
     3
 72
    15
 73
    11
 74
     0
 42
0.0000000001
 43
0.0000000001
 40
0.0
 40
0.0
 40
0.0
 40
0.0
 40
0.2498050276
 40
0.3748334646
 40
0.4998529221
 40
0.6248690763
 40
0.7498928476000001
 40
0.8749331635999999
 40
0.9374665434
 40
1.0
 40
1.0
 40
1.0
 40
1.0
 10
408.8736691044013
 20
9.309228150384591
 30
0.0
 10
409.0183992924615
 20
9.470326596284587
 30
0.0
 10
409.2138818631416
 20
9.733107185784596
 30
0.0
 10
409.4196354953215
 20
10.11506247470458
 30
0.0
 10
409.5440413196617
 20
10.41616543104458
 30
0.0
 10
409.6357452561417
 20
10.72875247922457
 30
0.0
 10
409.6943580345214
 20
11.04913673304458
 30
0.0
 10
409.7189219884413
 20
11.31931106950458
 30
0.0
 10
409.7277869491215
 20
11.53597552060458
 30
0.0
 10
409.7289404494815
 20
11.64441031770456
 30
0.0
 10
409.7289371906616
 20
11.69862233272459
 30
0.0
  0
SPLINE
  5
2F0
330
2
100
AcDbEntity
  8
8_4_1_1
  6
Continuous
 62
     2
100
AcDbSpline
210
0.0
220
0.0
230
1.0
 70
     8
 71
     3
 72
    19
 73
    15
 74
     0
 42
0.0000000001
 43
0.0000000001
 40
0.0
 40
0.0
 40
0.0
 40
0.0
 40
0.0624801241
 40
0.1249802813
 40
0.1874950912
 40
0.2499979896
 40
0.3124857114
 40
0.3749870023
 40
0.4999833067
 40
0.6249695201
 40
0.7499699911
 40
0.8124847146999998
 40
0.8749976155
 40
1.0
 40
1.0
 40
1.0
 40
1.0
 10
409.0289121543416
 20
11.69833714914458
 30
0.0
 10
409.0294998036617
 20
11.66225996704458
 30
0.0
 10
409.0292665097416
 20
11.59006608806458
 30
0.0
 10
409.0254580947017
 20
11.4818439245246
 30
0.0
 10
409.0191721331817
 20
11.37372765358458
 30
0.0
 10
409.0104511117615
 20
11.26578441252458
 30
0.0
 10
408.9984243108217
 20
11.15815494020457
 30
0.0
 10
408.9770117069615
 20
11.01535857352457
 30
0.0
 10
408.9392904692217
 20
10.83863293510459
 30
0.0
 10
408.8749707705813
 20
10.63155200306458
 30
0.0
 10
408.8060740935416
 20
10.46446726992457
 30
0.0
 10
408.7421112318816
 20
10.33496886496457
 30
0.0
 10
408.6723147827016
 20
10.20852118796457
 30
0.0
 10
408.6142196487016
 20
10.11698822650458
 30
0.0
 10
408.5736691176617
 20
10.05726552654459
 30
0.0
  0
SPLINE
  5
2F1
330
2
100
AcDbEntity
  8
8_4_1_1
  6
Continuous
 62
     2
100
AcDbSpline
210
0.0
220
0.0
230
1.0
 70
     8
 71
     3
 72
    19
 73
    15
 74
     0
 42
0.0000000001
 43
0.0000000001
 40
0.0
 40
0.0
 40
0.0
 40
0.0
 40
0.1598493531
 40
0.3175821838
 40
0.4707530815000001
 40
0.6161826554
 40
0.7494476447000002
 40
0.8096148591
 40
0.8641325873999999
 40
0.9117638075
 40
0.9511161854
 40
0.9807928695999999
 40
0.9916985879
 40
1.0
 40
1.0
 40
1.0
 40
1.0
 10
408.8736691044013
 20
9.309228150384591
 30
0.0
 10
408.8568713274817
 20
9.290530628724591
 30
0.0
 10
408.8234894333615
 20
9.253391005264598
 30
0.0
 10
408.7740370811615
 20
9.19831216190459
 30
0.0
 10
408.7262552971216
 20
9.144780470644583
 30
0.0
 10
408.6813978379415
 20
9.093797671924567
 30
0.0
 10
408.6467547246015
 20
9.053308408224577
 30
0.0
 10
408.6220543930016
 20
9.023139504884575
 30
0.0
 10
408.6063018743416
 20
9.003057289524582
 30
0.0
 10
408.5931010854015
 20
8.98513246634457
 30
0.0
 10
408.5829773337415
 20
8.969841417424582
 30
0.0
 10
408.5768662232814
 20
8.958792138024595
 30
0.0
 10
408.5742241203616
 20
8.951565388444572
 30
0.0
 10
408.5736691049616
 20
8.948556984504586
 30
0.0
 10
408.5736691049616
 20
8.947251660724568
 30
0.0
  0
SPLINE
  5
2F2
330
2
100
AcDbEntity
  8
0
  6
Continuous
 62
     2
100
AcDbSpline
210
0.0
220
0.0
230
1.0
 70
     8
 71
     3
 72
    24
 73
    20
 74
     0
 42
0.0000000001
 43
0.0000000001
 40
0.0
 40
0.0
 40
0.0
 40
0.0
 40
0.0012422771
 40
0.0030070173
 40
0.0055797269
 40
0.0131435278
 40
0.0238612951
 40
0.0376215886
 40
0.0542722698
 40
0.0955630436
 40
0.1462613486
 40
0.2048747612
 40
0.2700196197
 40
0.3404793678
 40
0.4152117712
 40
0.4933441875
 40
0.6570280543
 40
0.8270001088999999
 40
1.0
 40
1.0
 40
1.0
 40
1.0
 10
403.6736691056416
 20
8.862056916204586
 30
0.0
 10
403.6736691056416
 20
8.861947945124576
 30
0.0
 10
403.6732135337817
 20
8.862104670744594
 30
0.0
 10
403.6729092722616
 20
8.862315188484592
 30
0.0
 10
403.6719616668416
 20
8.862909109064583
 30
0.0
 10
403.6705437880415
 20
8.863976536444575
 30
0.0
 10
403.6682923523616
 20
8.865703444344584
 30
0.0
 10
403.6654862314817
 20
8.867954839384569
 30
0.0
 10
403.6606127639616
 20
8.87193841790458
 30
0.0
 10
403.6533150391615
 20
8.878062810024594
 30
0.0
 10
403.6432780894616
 20
8.886654484484601
 30
0.0
 10
403.6317352321813
 20
8.896701368124578
 30
0.0
 10
403.6189642696617
 20
8.907977682884585
 30
0.0
 10
403.6052149397817
 20
8.920281333664584
 30
0.0
 10
403.5907000945416
 20
8.933437431304588
 30
0.0
 10
403.5702430361416
 20
8.952213380544586
 30
0.0
 10
403.5438602974414
 20
8.97688704214457
 30
0.0
 10
403.5117723834614
 20
9.007638522424594
 30
0.0
 10
403.4903077604016
 20
9.028720146504587
 30
0.0
 10
403.4795464306416
 20
9.039419881264583
 30
0.0
  0
SPLINE
  5
2F3
330
2
100
AcDbEntity
  8
0
  6
Continuous
 62
     2
100
AcDbSpline
210
0.0
220
0.0
230
1.0
 70
     8
 71
     3
 72
    15
 73
    11
 74
     0
 42
0.0000000001
 43
0.0000000001
 40
0.0
 40
0.0
 40
0.0
 40
0.0
 40
0.1217940338
 40
0.2425834597
 40
0.3640703058
 40
0.4861164273
 40
0.6103254259000001
 40
0.7397438946
 40
0.8762207709
 40
1.0
 40
1.0
 40
1.0
 40
1.0
 10
403.0183829054216
 20
11.69833714914458
 30
0.0
 10
403.0183829054216
 20
11.62835622992458
 30
0.0
 10
403.0206118290816
 20
11.49087093212458
 30
0.0
 10
403.0325156102013
 20
11.28980313258458
 30
0.0
 10
403.0543653226614
 20
11.09460754888459
 30
0.0
 10
403.0880113666216
 20
10.90418180578459
 30
0.0
 10
403.1355299965015
 20
10.7150771674846
 30
0.0
 10
403.1995952176216
 20
10.52359436528458
 30
0.0
 10
403.2790064151615
 20
10.33724837018457
 30
0.0
 10
403.3417557588016
 20
10.21638182756458
 30
0.0
 10
403.3736691036616
 20
10.15983554746459
 30
0.0
  0
SPLINE
  5
2F4
330
2
100
AcDbEntity
  8
0
  6
Continuous
 62
     2
100
AcDbSpline
210
0.0
220
0.0
230
1.0
 70
     8
 71
     3
 72
    15
 73
    11
 74
     0
 42
0.0000000001
 43
0.0000000001
 40
0.0
 40
0.0
 40
0.0
 40
0.0
 40
0.0625335519
 40
0.1250670347
 40
0.250107659
 40
0.3751317119
 40
0.5001480742000001
 40
0.6251676135000001
 40
0.7501959113
 40
1.0
 40
1.0
 40
1.0
 40
1.0
 10
402.5184010199414
 20
11.69862233272459
 30
0.0
 10
402.5183977611217
 20
11.64441023642458
 30
0.0
 10
402.5195514138816
 20
11.53597526660458
 30
0.0
 10
402.5284162399416
 20
11.31931037354458
 30
0.0
 10
402.5529803335616
 20
11.04913543764459
 30
0.0
 10
402.6115933608616
 20
10.72875052342459
 30
0.0
 10
402.7032976783416
 20
10.41616306122457
 30
0.0
 10
402.8277038735216
 20
10.11506011758458
 30
0.0
 10
403.0334573304413
 20
9.733105715124587
 30
0.0
 10
403.2289394591615
 20
9.470325991764577
 30
0.0
 10
403.3736691036616
 20
9.309228150384591
 30
0.0
  0
SPLINE
  5
2F5
330
2
100
AcDbEntity
  8
0
  6
Continuous
 62
     2
100
AcDbSpline
210
0.0
220
0.0
230
1.0
 70
     8
 71
     3
 72
    19
 73
    15
 74
     0
 42
0.0000000001
 43
0.0000000001
 40
0.0
 40
0.0
 40
0.0
 40
0.0
 40
0.0083013177
 40
0.0192069188
 40
0.0488834437
 40
0.0882357613
 40
0.1358669897
 40
0.1903847057
 40
0.2505519473
 40
0.3838170614
 40
0.5292467433
 40
0.6824177461
 40
0.84015062
 40
1.0
 40
1.0
 40
1.0
 40
1.0
 10
403.6736691056416
 20
8.947251660724568
 30
0.0
 10
403.6736691056416
 20
8.948556969264583
 30
0.0
 10
403.6731141258016
 20
8.951565345264587
 30
0.0
 10
403.6704720025615
 20
8.958792031344597
 30
0.0
 10
403.6643609759216
 20
8.969841285344593
 30
0.0
 10
403.6542372293416
 20
8.985132303784586
 30
0.0
 10
403.6410364607215
 20
9.00305712950459
 30
0.0
 10
403.6252839395216
 20
9.023139347404589
 30
0.0
 10
403.6005836028417
 20
9.053308273604592
 30
0.0
 10
403.5659404615616
 20
9.093797567784584
 30
0.0
 10
403.5210829693617
 20
9.14478040968458
 30
0.0
 10
403.4733011573813
 20
9.198312131424595
 30
0.0
 10
403.4238487874016
 20
9.253390995104588
 30
0.0
 10
403.3904668856616
 20
9.290530626184583
 30
0.0
 10
403.3736691036616
 20
9.309228150384591
 30
0.0
  0
SPLINE
  5
2F6
330
2
100
AcDbEntity
  8
0
  6
Continuous
 62
     2
100
AcDbSpline
210
0.0
220
0.0
230
1.0
 70
     8
 71
     3
 72
    19
 73
    15
 74
     0
 42
0.0000000001
 43
0.0000000001
 40
0.0
 40
0.0
 40
0.0
 40
0.0
 40
0.1250016989
 40
0.1875147507
 40
0.2500295303
 40
0.3750293484
 40
0.5000156461000002
 40
0.6250122082000003
 40
0.6875130062000001
 40
0.7500009390000001
 40
0.8125044880999999
 40
0.8750196575
 40
0.9375198297
 40
1.0
 40
1.0
 40
1.0
 40
1.0
 10
403.6736690929417
 20
10.05726552654459
 30
0.0
 10
403.6331033219016
 20
10.11697742134459
 30
0.0
 10
403.5750089422815
 20
10.20851190172457
 30
0.0
 10
403.5052280963216
 20
10.33496774482459
 30
0.0
 10
403.4412710588815
 20
10.46446855770457
 30
0.0
 10
403.3723661319217
 20
10.63154943512459
 30
0.0
 10
403.3080463189816
 20
10.83863053734458
 30
0.0
 10
403.2703267855815
 20
11.01535661010457
 30
0.0
 10
403.2489198967216
 20
11.1581538505446
 30
0.0
 10
403.2368923464816
 20
11.26578341176459
 30
0.0
 10
403.2281656405417
 20
11.37372688396458
 30
0.0
 10
403.2218709134816
 20
11.48184332000459
 30
0.0
 10
403.2180680331016
 20
11.59006604742457
 30
0.0
 10
403.2178382926415
 20
11.6622599314846
 30
0.0
 10
403.2184260562615
 20
11.69833714914458
 30
0.0
  0
SPLINE
  5
2F7
330
2
100
AcDbEntity
  8
8_4_1_1
  6
Continuous
 62
     2
100
AcDbSpline
210
0.0
220
0.0
230
1.0
 70
     8
 71
     3
 72
    11
 73
     7
 74
     0
 42
0.0000000001
 43
0.0000000001
 40
0.0
 40
0.0
 40
0.0
 40
0.0
 40
0.2223539657
 40
0.4555342793000002
 40
0.7127877553000001
 40
1.0
 40
1.0
 40
1.0
 40
1.0
 10
421.4833546698415
 20
9.309228150384591
 30
0.0
 10
421.4833546698415
 20
9.271631014504599
 30
0.0
 10
421.4951853523016
 20
9.194081423604579
 30
0.0
 10
421.5507190715617
 20
9.084751492404571
 30
0.0
 10
421.6476467314016
 20
8.992189787764592
 30
0.0
 10
421.7355649782215
 20
8.95588820936458
 30
0.0
 10
421.7833546692816
 20
8.947251660724568
 30
0.0
  0
SPLINE
  5
2F8
330
2
100
AcDbEntity
  8
8_4_1_1
  6
Continuous
 62
     2
100
AcDbSpline
210
0.0
220
0.0
230
1.0
 70
     8
 71
     3
 72
    14
 73
    10
 74
     0
 42
0.0000000001
 43
0.0000000001
 40
0.0
 40
0.0
 40
0.0
 40
0.0
 40
0.1525447838
 40
0.297839089
 40
0.4323502931000001
 40
0.5564887836
 40
0.67268122
 40
0.7838125266000004
 40
1.0
 40
1.0
 40
1.0
 40
1.0
 10
422.6833546701416
 20
8.862056916204586
 30
0.0
 10
422.6987665646417
 20
8.861683239024591
 30
0.0
 10
422.7290319219417
 20
8.864045487284592
 30
0.0
 10
422.7712471918416
 20
8.876459704264583
 30
0.0
 10
422.8074049427416
 20
8.89607246920459
 30
0.0
 10
422.8363665815416
 20
8.920921632104587
 30
0.0
 10
422.8580789587415
 20
8.949363487844586
 30
0.0
 10
422.8777286705216
 20
8.989899411344588
 30
0.0
 10
422.8833546689216
 20
9.023428442584595
 30
0.0
 10
422.8833546689216
 20
9.045276699624604
 30
0.0
  0
SPLINE
  5
2F9
330
2
100
AcDbEntity
  8
8_4_1_1
  6
Continuous
 62
     2
100
AcDbSpline
210
0.0
220
0.0
230
1.0
 70
     8
 71
     3
 72
     9
 73
     5
 74
     0
 42
0.0000000001
 43
0.0000000001
 40
0.0
 40
0.0
 40
0.0
 40
0.0
 40
0.4999797444
 40
1.0
 40
1.0
 40
1.0
 40
1.0
 10
421.7833546692816
 20
8.947251660724568
 30
0.0
 10
421.9317265848816
 20
8.920437906884581
 30
0.0
 10
422.2312589068216
 20
8.881698362824584
 30
0.0
 10
422.5326114181616
 20
8.865711856824582
 30
0.0
 10
422.6833546701416
 20
8.862056916204586
 30
0.0
  0
SPLINE
  5
2FA
330
2
100
AcDbEntity
  8
8_4_1_1
  6
Continuous
 62
     7
100
AcDbSpline
210
0.0
220
0.0
230
1.0
 70
     8
 71
     3
 72
    24
 73
    20
 74
     0
 42
0.0000000001
 43
0.0000000001
 40
0.0
 40
0.0
 40
0.0
 40
0.0
 40
0.0012422796
 40
0.0030070213
 40
0.0055797305
 40
0.0131435406
 40
0.0238613088
 40
0.0376215971
 40
0.0542722769
 40
0.0955630561
 40
0.1462613378
 40
0.2048747328
 40
0.2700195851
 40
0.340479329
 40
0.4152117263
 40
0.4933441458
 40
0.6570280180000001
 40
0.8270000879999999
 40
1.0
 40
1.0
 40
1.0
 40
1.0
 10
435.2648075615416
 20
8.862056916204586
 30
0.0
 10
435.2648075615416
 20
8.861947945124576
 30
0.0
 10
435.2643519896814
 20
8.862104670744594
 30
0.0
 10
435.2640477281616
 20
8.862315191024601
 30
0.0
 10
435.2631001227416
 20
8.862909109064583
 30
0.0
 10
435.2616822464816
 20
8.863976536444575
 30
0.0
 10
435.2594308133417
 20
8.865703441804591
 30
0.0
 10
435.2566246950017
 20
8.86795483430459
 30
0.0
 10
435.2517512325615
 20
8.871938407744599
 30
0.0
 10
435.2444535153816
 20
8.87806279478459
 30
0.0
 10
435.2344165783816
 20
8.886654454004592
 30
0.0
 10
435.2228737363416
 20
8.896701324944562
 30
0.0
 10
435.2101027890616
 20
8.907977627004591
 30
0.0
 10
435.1963534744217
 20
8.920281262544596
 30
0.0
 10
435.1818386444215
 20
8.933437344944586
 30
0.0
 10
435.1613816088817
 20
8.952213273864581
 30
0.0
 10
435.1349988955815
 20
8.976886910064585
 30
0.0
 10
435.1029110095416
 20
9.007638357324598
 30
0.0
 10
435.0814464068015
 20
9.028719961084583
 30
0.0
 10
435.0706850872017
 20
9.039419683144592
 30
0.0
  0
SPLINE
  5
2FB
330
2
100
AcDbEntity
  8
0
  6
Continuous
 62
     2
100
AcDbSpline
210
0.0
220
0.0
230
1.0
 70
     8
 71
     3
 72
    24
 73
    20
 74
     0
 42
0.0000000001
 43
0.0000000001
 40
0.0
 40
0.0
 40
0.0
 40
0.0
 40
0.0012422771
 40
0.0030070173
 40
0.0055797269
 40
0.0131435278
 40
0.0238612951
 40
0.0376215886
 40
0.0542722698
 40
0.0955630436
 40
0.1462613486
 40
0.2048747612
 40
0.2700196197
 40
0.3404793678
 40
0.4152117712
 40
0.4933441875
 40
0.6570280543
 40
0.8270001088999999
 40
1.0
 40
1.0
 40
1.0
 40
1.0
 10
440.1648075608616
 20
8.862056916204586
 30
0.0
 10
440.1648075608616
 20
8.861947945124576
 30
0.0
 10
440.1652631327216
 20
8.862104670744594
 30
0.0
 10
440.1655673942417
 20
8.862315188484592
 30
0.0
 10
440.1665149996616
 20
8.862909109064583
 30
0.0
 10
440.1679328784616
 20
8.863976536444575
 30
0.0
 10
440.1701843141417
 20
8.865703444344584
 30
0.0
 10
440.1729904350218
 20
8.867954839384569
 30
0.0
 10
440.1778639025416
 20
8.87193841790458
 30
0.0
 10
440.1851616273416
 20
8.878062810024594
 30
0.0
 10
440.1951985770415
 20
8.886654484484601
 30
0.0
 10
440.2067414343215
 20
8.896701368124578
 30
0.0
 10
440.2195123968416
 20
8.907977682884585
 30
0.0
 10
440.2332617267213
 20
8.920281333664584
 30
0.0
 10
440.2477765719615
 20
8.933437431304588
 30
0.0
 10
440.2682336303617
 20
8.952213380544586
 30
0.0
 10
440.2946163690616
 20
8.97688704214457
 30
0.0
 10
440.3267042830415
 20
9.007638522424594
 30
0.0
 10
440.3481689061017
 20
9.028720146504587
 30
0.0
 10
440.3589302358617
 20
9.039419881264583
 30
0.0
  0
ARC
  5
2FC
330
2
100
AcDbEntity
  8
0
 62
     2
100
AcDbCircle
 10
405.394203372377
 20
11.44768615160381
 30
0.0
 40
2.980629056400623
100
AcDbArc
 50
194.1063563090765
 51
203.6498684938349
  0
LINE
  5
2FD
330
2
100
AcDbEntity
  8
0
 62
     2
100
AcDbLine
 10
421.7833590584016
 20
13.39597464032457
 30
0.0
 11
421.7833574048616
 21
16.90891143206458
 31
0.0
  0
DIMENSION
  5
2FE
102
{ACAD_XDICTIONARY
360
2FF
102
}
102
{ACAD_REACTORS
330
300
102
}
330
2
100
AcDbEntity
  8
0
 62
     1
100
AcDbDimension
  2
*D2
 10
421.7833546692816
 20
38.44285325353808
 30
0.0
 11
416.3058546692816
 21
38.44285325353808
 31
0.0
 71
     5
 42
0.8000000001998158
  3
STANDARD
100
AcDbAlignedDimension
 13
422.5833546694812
 23
35.84857653970456
 33
0.0
 14
421.7833546692816
 24
35.84857653970456
 34
0.0
100
AcDbRotatedDimension
1001
ACAD
1000
DSTYLE
1002
{
1070
    42
1040
0.0730807087
1070
    43
1040
0.4443307087
1070
    44
1040
0.2104724409
1070
    47
1040
0.0
1070
    48
1040
0.0
1070
    69
1070
     2
1070
    70
1070
     1
1070
    78
1070
     0
1070
   140
1040
3.0
1070
   141
1040
0.1052362205
1070
   176
1070
     1
1070
   177
1070
     1
1070
   178
1070
   256
1070
   271
1070
     4
1070
   272
1070
     4
1070
   284
1070
     0
1002
}
  0
MTEXT
  5
30E
330
2
100
AcDbEntity
  8
0
 62
     1
100
AcDbMText
 10
-132.9591844419608
 20
22.50237551204691
 30
0.0
 40
2.0
 41
16.09449047682926
 71
     1
 72
     5
  1
{\fSimSun|b0|i0|c134|p2;左右耳机电量灯}
 73
     1
 44
1.0
  0
MTEXT
  5
30F
330
2
100
AcDbEntity
  8
0
 62
     1
100
AcDbMText
 10
-132.6284446016809
 20
28.56063218206396
 30
0.0
 40
2.0
 41
29.75175126993871
 71
     1
 72
     5
  1
{\fSimSun|b0|i0|c134|p2;\C3;霍尔开关}
 73
     1
 44
1.0
  0
MTEXT
  5
310
330
2
100
AcDbEntity
  8
0
 62
     1
100
AcDbMText
 10
-132.6518190116842
 20
15.38273895889415
 30
0.0
 40
2.0
 41
73.26365370854922
 71
     1
 72
     5
  1
{\fSimSun|b0|i0|c134|p2;\C2;显示屏}
 73
     1
 44
1.0
  0
MTEXT
  5
311
330
2
100
AcDbEntity
  8
0
 62
     1
100
AcDbMText
 10
-133.0718450919716
 20
9.254198706499552
 30
0.0
 40
2.0
 41
84.93525472954386
 71
     1
 72
     5
  1
{\fSimSun|b0|i0|c134|p2;\C5;耳机充电座}
 73
     1
 44
1.0
  0
MTEXT
  5
312
330
2
100
AcDbEntity
  8
0
 62
     5
100
AcDbMText
 10
-132.8356402705919
 20
-3.689137166257635
 30
0.0
 40
2.0
 41
88.38232797542195
 71
     1
 72
     5
  1
{\C6;T-C\fSimSun|b0|i0|c134|p2;充电口}
 73
     1
 44
1.0
  0
LINE
  5
313
330
2
100
AcDbEntity
  8
0
  6
Continuous
 62
     5
100
AcDbLine
 10
-91.70302867239724
 20
10.56527447052941
 30
0.0
 11
-91.75074799529724
 21
10.41527446826941
 31
0.0
  0
LINE
  5
314
330
2
100
AcDbEntity
  8
0
 62
     5
100
AcDbLine
 10
-121.729415474781
 20
8.189117331938405
 30
0.0
 11
-91.75074799529724
 21
10.41527446826941
 31
0.0
  0
MTEXT
  5
315
330
2
100
AcDbEntity
  8
0
 62
     5
100
AcDbMText
 10
-131.6636805508124
 20
-38.06221230592405
 30
0.0
 40
2.0
 41
15.49369854117685
 71
     1
 72
     5
  1
{\fSimSun|b0|i0|c134|p2;螺丝孔定位孔}
 73
     1
 44
1.0
1001
ACAD
1000
ACAD_MTEXT_DEFINED_HEIGHT_BEGIN
1070
    46
1040
2.248015880133857
1000
ACAD_MTEXT_DEFINED_HEIGHT_END
  0
LINE
  5
316
330
2
100
AcDbEntity
  8
0
  6
Continuous
 62
     7
100
AcDbLine
 10
-95.15660826393698
 20
3.137109670491781
 30
0.0
 11
-95.15660826393698
 21
4.137109672011789
 31
0.0
  0
LINE
  5
317
330
2
100
AcDbEntity
  8
0
  6
Continuous
 62
     5
100
AcDbLine
 10
-94.58972442183698
 20
12.48711791227178
 30
0.0
 11
-94.58972442183698
 21
4.137109672011789
 31
0.0
  0
LINE
  5
318
330
2
100
AcDbEntity
  8
0
  6
Continuous
 62
     5
100
AcDbLine
 10
-94.542005098937
 20
12.63711791199178
 30
0.0
 11
-94.542005098937
 21
4.137109672011789
 31
0.0
  0
LINE
  5
319
330
2
100
AcDbEntity
  8
0
  6
Continuous
 62
     5
100
AcDbLine
 10
-94.542005098937
 20
12.63711791199178
 30
0.0
 11
-94.58972442183698
 21
12.48711791227178
 31
0.0
  0
LINE
  5
31A
330
2
100
AcDbEntity
  8
0
  6
Continuous
 62
     5
100
AcDbLine
 10
-92.67629928755699
 20
12.63711791199178
 30
0.0
 11
-92.67629928755699
 21
4.137109672011789
 31
0.0
  0
LINE
  5
31B
330
2
100
AcDbEntity
  8
0
  6
Continuous
 62
     5
100
AcDbLine
 10
-92.46960418151699
 20
12.48711791227178
 30
0.0
 11
-92.46960418151699
 21
4.137109672011789
 31
0.0
  0
LINE
  5
31C
330
2
100
AcDbEntity
  8
0
  6
Continuous
 62
     5
100
AcDbLine
 10
-92.09993709509699
 20
6.131304304391775
 30
0.0
 11
-92.09993709509699
 21
12.48711791227178
 31
0.0
  0
LINE
  5
31D
330
2
100
AcDbEntity
  8
0
  6
Continuous
 62
     7
100
AcDbLine
 10
-91.156608262937
 20
17.93710967165178
 30
0.0
 11
-91.156608262937
 21
23.93710967061178
 31
0.0
  0
LINE
  5
31E
330
2
100
AcDbEntity
  8
0
  6
Continuous
 62
     5
100
AcDbLine
 10
-91.71719207191699
 20
6.131304304391775
 30
0.0
 11
-91.21504516917699
 21
5.438278149171779
 31
0.0
  0
LINE
  5
31F
330
2
100
AcDbEntity
  8
0
  6
Continuous
 62
     5
100
AcDbLine
 10
-92.11584353521699
 20
12.53711791387177
 30
0.0
 11
-92.09993709509699
 21
12.48711791227178
 31
0.0
  0
LINE
  5
320
330
2
100
AcDbEntity
  8
0
  6
Continuous
 62
     5
100
AcDbLine
 10
-90.48057984359699
 20
4.137109672011789
 30
0.0
 11
-90.48057984359699
 21
5.438278149171779
 31
0.0
  0
LINE
  5
321
330
2
100
AcDbEntity
  8
0
  6
Continuous
 62
     1
100
AcDbLine
 10
-89.906608263577
 20
22.13710967143179
 30
0.0
 11
-89.906608263577
 21
23.63710967117176
 31
0.0
  0
LINE
  5
322
330
2
100
AcDbEntity
  8
0
  6
Continuous
 62
     5
100
AcDbLine
 10
-89.289255383477
 20
6.131304304391775
 30
0.0
 11
-89.289255383477
 21
12.48711791227178
 31
0.0
  0
LINE
  5
323
330
2
100
AcDbEntity
  8
0
  6
Continuous
 62
     5
100
AcDbLine
 10
-89.25744250069699
 20
6.131304304391775
 30
0.0
 11
-89.25744250069699
 21
12.48711791227178
 31
0.0
  0
LINE
  5
324
330
2
100
AcDbEntity
  8
0
  6
Continuous
 62
     1
100
AcDbLine
 10
-88.90660826205699
 20
23.63710967117176
 30
0.0
 11
-88.90660826205699
 21
22.13710967143179
 31
0.0
  0
LINE
  5
325
330
2
100
AcDbEntity
  8
0
  6
Continuous
 62
     5
100
AcDbLine
 10
-88.822677970177
 20
7.941603142511766
 30
0.0
 11
-88.822677970177
 21
8.53561734183178
 31
0.0
  0
LINE
  5
326
330
2
100
AcDbEntity
  8
0
  6
Continuous
 62
     5
100
AcDbLine
 10
-88.78849239465699
 20
4.137109672011789
 30
0.0
 11
-88.78849239465699
 21
5.438278149171779
 31
0.0
  0
LINE
  5
327
330
2
100
AcDbEntity
  8
0
  6
Continuous
 62
     5
100
AcDbLine
 10
-88.35625151669701
 20
7.941603142511766
 30
0.0
 11
-88.35625151669701
 21
8.53561734183178
 31
0.0
  0
LINE
  5
328
330
2
100
AcDbEntity
  8
0
  6
Continuous
 62
     5
100
AcDbLine
 10
-88.27676362893699
 20
8.53561734183178
 30
0.0
 11
-88.27676362893699
 21
7.941603142511766
 31
0.0
  0
LINE
  5
329
330
2
100
AcDbEntity
  8
0
  6
Continuous
 62
     5
100
AcDbLine
 10
-88.04897396259699
 20
11.15008055587178
 30
0.0
 11
-88.04897396259699
 21
10.92026292559178
 31
0.0
  0
LINE
  5
32A
330
2
100
AcDbEntity
  8
0
  6
Continuous
 62
     1
100
AcDbLine
 10
-87.506608262977
 20
22.13710967143179
 30
0.0
 11
-87.506608262977
 21
23.63710967117176
 31
0.0
  0
LINE
  5
32B
330
2
100
AcDbEntity
  8
0
  6
Continuous
 62
     5
100
AcDbLine
 10
-87.306931880517
 20
6.131304304391775
 30
0.0
 11
-87.306931880517
 21
12.48711791227178
 31
0.0
  0
LINE
  5
32C
330
2
100
AcDbEntity
  8
0
  6
Continuous
 62
     5
100
AcDbLine
 10
-87.16913514315699
 20
6.131304304391775
 30
0.0
 11
-87.16913514315699
 21
12.48711791227178
 31
0.0
  0
LINE
  5
32D
330
2
100
AcDbEntity
  8
0
  6
Continuous
 62
     5
100
AcDbLine
 10
-86.79946805419699
 20
12.48711791227178
 30
0.0
 11
-86.79946805419699
 21
4.137109672011789
 31
0.0
  0
LINE
  5
32E
330
2
100
AcDbEntity
  8
0
  6
Continuous
 62
     1
100
AcDbLine
 10
-86.50660826399699
 20
23.63710967117176
 30
0.0
 11
-86.50660826399699
 21
22.13710967143179
 31
0.0
  0
LINE
  5
32F
330
2
100
AcDbEntity
  8
0
  6
Continuous
 62
     5
100
AcDbLine
 10
-89.27334894335698
 20
12.53711791387177
 30
0.0
 11
-89.289255383477
 21
12.48711791227178
 31
0.0
  0
LINE
  5
330
330
2
100
AcDbEntity
  8
0
  6
Continuous
 62
     5
100
AcDbLine
 10
-89.25744250069699
 20
12.48711791227178
 30
0.0
 11
-89.27334894335698
 21
12.53711791387177
 31
0.0
  0
LINE
  5
331
330
2
100
AcDbEntity
  8
0
  6
Continuous
 62
     1
100
AcDbLine
 10
-85.106608262377
 20
22.13710967143179
 30
0.0
 11
-85.106608262377
 21
23.63710967117176
 31
0.0
  0
LINE
  5
332
330
2
100
AcDbEntity
  8
0
  6
Continuous
 62
     5
100
AcDbLine
 10
-88.515400416077
 20
11.15008055587178
 30
0.0
 11
-89.114951500437
 21
9.836785818991771
 31
0.0
  0
LINE
  5
333
330
2
100
AcDbEntity
  8
0
  6
Continuous
 62
     5
100
AcDbLine
 10
-88.64852504695699
 20
9.836785818991771
 30
0.0
 11
-88.04897396259699
 21
11.15008055587178
 31
0.0
  0
LINE
  5
334
330
2
100
AcDbEntity
  8
0
  6
Continuous
 62
     5
100
AcDbLine
 10
-88.04897396259699
 20
10.92026292559178
 30
0.0
 11
-88.58830312777699
 21
9.738882103191784
 31
0.0
  0
LINE
  5
335
330
2
100
AcDbEntity
  8
0
  6
Continuous
 62
     5
100
AcDbLine
 10
-87.26984639461699
 20
12.63711791199178
 30
0.0
 11
-87.23803351183699
 21
12.53711791387177
 31
0.0
  0
LINE
  5
336
330
2
100
AcDbEntity
  8
0
  6
Continuous
 62
     5
100
AcDbLine
 10
-86.84718737963699
 20
12.63711791199178
 30
0.0
 11
-86.79946805419699
 21
12.48711791227178
 31
0.0
  0
LINE
  5
337
330
2
100
AcDbEntity
  8
0
  6
Continuous
 62
     1
100
AcDbLine
 10
-84.10660826339698
 20
23.63710967117176
 30
0.0
 11
-84.10660826339698
 21
22.13710967143179
 31
0.0
  0
LINE
  5
338
330
2
100
AcDbEntity
  8
0
  6
Continuous
 62
     1
100
AcDbLine
 10
-82.70660826431699
 20
22.13710967143179
 30
0.0
 11
-82.70660826431699
 21
23.63710967117176
 31
0.0
  0
LINE
  5
339
330
2
100
AcDbEntity
  8
0
  6
Continuous
 62
     6
100
AcDbLine
 10
-72.631608264497
 20
-3.362890329228221
 30
0.0
 11
-63.681608262577
 21
-3.362890329228221
 31
0.0
  0
LINE
  5
33A
330
2
100
AcDbEntity
  8
0
  6
Continuous
 62
     1
100
AcDbLine
 10
-81.706608262797
 20
23.63710967117176
 30
0.0
 11
-81.706608262797
 21
22.13710967143179
 31
0.0
  0
LINE
  5
33B
330
2
100
AcDbEntity
  8
0
  6
Continuous
 62
     5
100
AcDbLine
 10
-89.672000406657
 20
6.131304304391775
 30
0.0
 11
-90.174147309397
 21
5.438278149171779
 31
0.0
  0
LINE
  5
33C
330
2
100
AcDbEntity
  8
0
  6
Continuous
 62
     5
100
AcDbLine
 10
-88.05402706907699
 20
5.438278149171779
 30
0.0
 11
-87.55188016633699
 21
6.131304304391775
 31
0.0
  0
LINE
  5
33D
330
2
100
AcDbEntity
  8
0
  6
Continuous
 62
     5
100
AcDbLine
 10
-89.13555220599699
 20
12.63711791199178
 30
0.0
 11
-89.27334894335698
 21
12.53711791387177
 31
0.0
  0
LINE
  5
33E
330
2
100
AcDbEntity
  8
0
  6
Continuous
 62
     5
100
AcDbLine
 10
-92.67629928755699
 20
12.63711791199178
 30
0.0
 11
-92.46960418151699
 21
12.48711791227178
 31
0.0
  0
LINE
  5
33F
330
2
100
AcDbEntity
  8
0
  6
Continuous
 62
     5
100
AcDbLine
 10
-92.253640272577
 20
12.63711791199178
 30
0.0
 11
-92.11584353521699
 21
12.53711791387177
 31
0.0
  0
LINE
  5
340
330
2
100
AcDbEntity
  8
0
  6
Continuous
 62
     5
100
AcDbLine
 10
-87.306931880517
 20
12.48711791227178
 30
0.0
 11
-87.23803351183699
 21
12.53711791387177
 31
0.0
  0
LINE
  5
341
330
2
100
AcDbEntity
  8
0
  6
Continuous
 62
     5
100
AcDbLine
 10
-87.23803351183699
 20
12.53711791387177
 30
0.0
 11
-87.16913514315699
 21
12.48711791227178
 31
0.0
  0
LINE
  5
342
330
2
100
AcDbEntity
  8
0
  6
Continuous
 62
     7
100
AcDbLine
 10
-78.15660826349699
 20
17.93710967165178
 30
0.0
 11
-78.15662082887699
 21
3.137109670491781
 31
0.0
  0
LINE
  5
343
330
2
100
AcDbEntity
  8
0
  6
Continuous
 62
     7
100
AcDbLine
 10
-95.15660826393698
 20
3.137109670491781
 30
0.0
 11
-41.15660826313699
 21
3.137109670491781
 31
0.0
  0
LINE
  5
344
330
2
100
AcDbEntity
  8
0
  6
Continuous
 62
     7
100
AcDbLine
 10
-95.15660826393698
 20
4.137109672011789
 30
0.0
 11
-41.15660826313699
 21
4.137109672011789
 31
0.0
  0
LINE
  5
345
330
2
100
AcDbEntity
  8
0
  6
Continuous
 62
     5
100
AcDbLine
 10
-91.21504516917699
 20
5.438278149171779
 30
0.0
 11
-88.05402706907699
 21
5.438278149171779
 31
0.0
  0
LINE
  5
346
330
2
100
AcDbEntity
  8
0
  6
Continuous
 62
     5
100
AcDbLine
 10
-48.25918945545699
 20
5.438278149171779
 30
0.0
 11
-45.09817135789698
 21
5.438278149171779
 31
0.0
  0
LINE
  5
347
330
2
100
AcDbEntity
  8
0
  6
Continuous
 62
     6
100
AcDbLine
 10
-72.631608264497
 20
-3.362890329228221
 30
0.0
 11
-72.631608264497
 21
3.137109670491781
 31
0.0
  0
LINE
  5
348
330
2
100
AcDbEntity
  8
0
  6
Continuous
 62
     5
100
AcDbLine
 10
-91.71719207191699
 20
6.131304304391775
 30
0.0
 11
-92.09993709509699
 21
6.131304304391775
 31
0.0
  0
LINE
  5
349
330
2
100
AcDbEntity
  8
0
  6
Continuous
 62
     5
100
AcDbLine
 10
-89.672000406657
 20
6.131304304391775
 30
0.0
 11
-87.16913514315699
 21
6.131304304391775
 31
0.0
  0
LINE
  5
34A
330
2
100
AcDbEntity
  8
0
  6
Continuous
 62
     5
100
AcDbLine
 10
-49.14408138391699
 20
6.131304304391775
 30
0.0
 11
-46.64121612041698
 21
6.131304304391775
 31
0.0
  0
LINE
  5
34B
330
2
100
AcDbEntity
  8
0
  6
Continuous
 62
     5
100
AcDbLine
 10
-44.59602445515701
 20
6.131304304391775
 30
0.0
 11
-44.213279431977
 21
6.131304304391775
 31
0.0
  0
LINE
  5
34C
330
2
100
AcDbEntity
  8
0
  6
Continuous
 62
     5
100
AcDbLine
 10
-88.27676362893699
 20
7.941603142511766
 30
0.0
 11
-88.822677970177
 21
7.941603142511766
 31
0.0
  0
LINE
  5
34D
330
2
100
AcDbEntity
  8
0
  6
Continuous
 62
     5
100
AcDbLine
 10
-48.036452898137
 20
7.941603142511766
 30
0.0
 11
-47.49053855689699
 21
7.941603142511766
 31
0.0
  0
LINE
  5
34E
330
2
100
AcDbEntity
  8
0
  6
Continuous
 62
     7
100
AcDbLine
 10
-71.906608264157
 20
23.93710967061178
 30
0.0
 11
-71.906608264157
 21
27.23710967207178
 31
0.0
  0
LINE
  5
34F
330
2
100
AcDbEntity
  8
0
  6
Continuous
 62
     6
100
AcDbLine
 10
-71.43160826419699
 20
3.137109670491781
 30
0.0
 11
-71.43160826419699
 21
-3.362890329228221
 31
0.0
  0
LINE
  5
350
330
2
100
AcDbEntity
  8
0
  6
Continuous
 62
     5
100
AcDbLine
 10
-47.49053855689699
 20
8.53561734183178
 30
0.0
 11
-47.95696500783699
 21
8.53561734183178
 31
0.0
  0
LINE
  5
351
330
2
100
AcDbEntity
  8
0
  6
Continuous
 62
     5
100
AcDbLine
 10
-88.35625151669701
 20
8.53561734183178
 30
0.0
 11
-88.822677970177
 21
8.53561734183178
 31
0.0
  0
LINE
  5
352
330
2
100
AcDbEntity
  8
0
  6
Continuous
 62
     5
100
AcDbLine
 10
-89.114951500437
 20
9.836785818991771
 30
0.0
 11
-88.64852504695699
 21
9.836785818991771
 31
0.0
  0
LINE
  5
353
330
2
100
AcDbEntity
  8
0
  6
Continuous
 62
     5
100
AcDbLine
 10
-47.664691480117
 20
9.836785818991771
 30
0.0
 11
-47.198265026637
 21
9.836785818991771
 31
0.0
  0
LINE
  5
354
330
2
100
AcDbEntity
  8
0
  6
Continuous
 62
     3
100
AcDbLine
 10
-69.65660826327699
 20
25.43710967035178
 30
0.0
 11
-69.65660826327699
 21
26.93710967263176
 31
0.0
  0
LINE
  5
355
330
2
100
AcDbEntity
  8
0
  6
Continuous
 62
     5
100
AcDbLine
 10
-88.04897396259699
 20
11.15008055587178
 30
0.0
 11
-88.515400416077
 21
11.15008055587178
 31
0.0
  0
LINE
  5
356
330
2
100
AcDbEntity
  8
0
  6
Continuous
 62
     5
100
AcDbLine
 10
-48.264242561937
 20
11.15008055587178
 30
0.0
 11
-47.79781611099699
 21
11.15008055587178
 31
0.0
  0
LINE
  5
357
330
2
100
AcDbEntity
  8
0
  6
Continuous
 62
     3
100
AcDbLine
 10
-66.65660826379699
 20
26.93710967263176
 30
0.0
 11
-66.65660826379699
 21
25.43710967035178
 31
0.0
  0
LINE
  5
358
330
2
100
AcDbEntity
  8
0
  6
Continuous
 62
     5
100
AcDbLine
 10
-49.14408138391699
 20
12.48711791227178
 30
0.0
 11
-49.51374847033699
 21
12.48711791227178
 31
0.0
  0
LINE
  5
359
330
2
100
AcDbEntity
  8
0
  6
Continuous
 62
     5
100
AcDbLine
 10
-87.306931880517
 20
12.48711791227178
 30
0.0
 11
-89.25744250069699
 21
12.48711791227178
 31
0.0
  0
LINE
  5
35A
330
2
100
AcDbEntity
  8
0
  6
Continuous
 62
     5
100
AcDbLine
 10
-92.09993709509699
 20
12.48711791227178
 30
0.0
 11
-92.46960418151699
 21
12.48711791227178
 31
0.0
  0
LINE
  5
35B
330
2
100
AcDbEntity
  8
0
  6
Continuous
 62
     5
100
AcDbLine
 10
-87.16913514315699
 20
12.48711791227178
 30
0.0
 11
-86.79946805419699
 21
12.48711791227178
 31
0.0
  0
LINE
  5
35C
330
2
100
AcDbEntity
  8
0
  6
Continuous
 62
     5
100
AcDbLine
 10
-49.00628464655699
 20
12.48711791227178
 30
0.0
 11
-47.055774026377
 21
12.48711791227178
 31
0.0
  0
LINE
  5
35D
330
2
100
AcDbEntity
  8
0
  6
Continuous
 62
     5
100
AcDbLine
 10
-44.213279431977
 20
12.48711791227178
 30
0.0
 11
-43.84361234301699
 21
12.48711791227178
 31
0.0
  0
LINE
  5
35E
330
2
100
AcDbEntity
  8
0
  6
Continuous
 62
     5
100
AcDbLine
 10
-92.253640272577
 20
12.63711791199178
 30
0.0
 11
-94.542005098937
 21
12.63711791199178
 31
0.0
  0
LINE
  5
35F
330
2
100
AcDbEntity
  8
0
  6
Continuous
 62
     5
100
AcDbLine
 10
-89.13555220599699
 20
12.63711791199178
 30
0.0
 11
-86.84718737963699
 21
12.63711791199178
 31
0.0
  0
LINE
  5
360
330
2
100
AcDbEntity
  8
0
  6
Continuous
 62
     5
100
AcDbLine
 10
-49.46602914743699
 20
12.63711791199178
 30
0.0
 11
-47.17766432107699
 21
12.63711791199178
 31
0.0
  0
LINE
  5
361
330
2
100
AcDbEntity
  8
0
  6
Continuous
 62
     5
100
AcDbLine
 10
-44.059576254497
 20
12.63711791199178
 30
0.0
 11
-41.77121142813699
 21
12.63711791199178
 31
0.0
  0
LINE
  5
362
330
2
100
AcDbEntity
  8
0
  6
Continuous
 62
     6
100
AcDbLine
 10
-64.881608262877
 20
-3.362890329228221
 30
0.0
 11
-64.881608262877
 21
3.137109670491781
 31
0.0
  0
LINE
  5
363
330
2
100
AcDbEntity
  8
0
  6
Continuous
 62
     7
100
AcDbLine
 10
-64.40660826291699
 20
27.23710967207178
 30
0.0
 11
-64.40660826291699
 21
23.93710967061178
 31
0.0
  0
LINE
  5
364
330
2
100
AcDbEntity
  8
0
  6
Continuous
 62
     6
100
AcDbLine
 10
-63.681608262577
 20
3.137109670491781
 30
0.0
 11
-63.681608262577
 21
-3.362890329228221
 31
0.0
  0
LINE
  5
365
330
2
100
AcDbEntity
  8
0
  6
Continuous
 62
     7
100
AcDbLine
 10
-45.15660826413699
 20
17.93710967165178
 30
0.0
 11
-58.15660826357699
 21
17.93710967165178
 31
0.0
  0
LINE
  5
366
330
2
100
AcDbEntity
  8
0
  6
Continuous
 62
     7
100
AcDbLine
 10
-78.15660826349699
 20
17.93710967165178
 30
0.0
 11
-91.156608262937
 21
17.93710967165178
 31
0.0
  0
LINE
  5
367
330
2
100
AcDbEntity
  8
0
  6
Continuous
 62
     7
100
AcDbLine
 10
-58.156581580877
 20
3.137109670491781
 30
0.0
 11
-58.15660826357699
 21
17.93710967165178
 31
0.0
  0
LINE
  5
368
330
2
100
AcDbEntity
  8
0
  6
Continuous
 62
     1
100
AcDbLine
 10
-81.706608262797
 20
22.13710967143179
 30
0.0
 11
-82.70660826431699
 21
22.13710967143179
 31
0.0
  0
LINE
  5
369
330
2
100
AcDbEntity
  8
0
  6
Continuous
 62
     1
100
AcDbLine
 10
-84.10660826339698
 20
22.13710967143179
 30
0.0
 11
-85.106608262377
 21
22.13710967143179
 31
0.0
  0
LINE
  5
36A
330
2
100
AcDbEntity
  8
0
  6
Continuous
 62
     1
100
AcDbLine
 10
-86.50660826399699
 20
22.13710967143179
 30
0.0
 11
-87.506608262977
 21
22.13710967143179
 31
0.0
  0
LINE
  5
36B
330
2
100
AcDbEntity
  8
0
  6
Continuous
 62
     1
100
AcDbLine
 10
-88.90660826205699
 20
22.13710967143179
 30
0.0
 11
-89.906608263577
 21
22.13710967143179
 31
0.0
  0
LINE
  5
36C
330
2
100
AcDbEntity
  8
0
  6
Continuous
 62
     1
100
AcDbLine
 10
-54.60660826427699
 20
22.13710967143179
 30
0.0
 11
-53.606608262757
 21
22.13710967143179
 31
0.0
  0
LINE
  5
36D
330
2
100
AcDbEntity
  8
0
  6
Continuous
 62
     1
100
AcDbLine
 10
-52.206608263677
 20
22.13710967143179
 30
0.0
 11
-51.20660826215699
 21
22.13710967143179
 31
0.0
  0
LINE
  5
36E
330
2
100
AcDbEntity
  8
0
  6
Continuous
 62
     1
100
AcDbLine
 10
-49.80660826307699
 20
22.13710967143179
 30
0.0
 11
-48.806608264097
 21
22.13710967143179
 31
0.0
  0
LINE
  5
36F
330
2
100
AcDbEntity
  8
0
  6
Continuous
 62
     1
100
AcDbLine
 10
-47.406608262477
 20
22.13710967143179
 30
0.0
 11
-46.40660826349699
 21
22.13710967143179
 31
0.0
  0
LINE
  5
370
330
2
100
AcDbEntity
  8
0
  6
Continuous
 62
     5
100
AcDbLine
 10
-49.07518301523699
 20
12.53711791387177
 30
0.0
 11
-49.14408138391699
 21
12.48711791227178
 31
0.0
  0
LINE
  5
371
330
2
100
AcDbEntity
  8
0
  6
Continuous
 62
     1
100
AcDbLine
 10
-46.40660826349699
 20
23.63710967117176
 30
0.0
 11
-47.406608262477
 21
23.63710967117176
 31
0.0
  0
LINE
  5
372
330
2
100
AcDbEntity
  8
0
  6
Continuous
 62
     1
100
AcDbLine
 10
-48.806608264097
 20
23.63710967117176
 30
0.0
 11
-49.80660826307699
 21
23.63710967117176
 31
0.0
  0
LINE
  5
373
330
2
100
AcDbEntity
  8
0
  6
Continuous
 62
     1
100
AcDbLine
 10
-51.20660826215699
 20
23.63710967117176
 30
0.0
 11
-52.206608263677
 21
23.63710967117176
 31
0.0
  0
LINE
  5
374
330
2
100
AcDbEntity
  8
0
  6
Continuous
 62
     1
100
AcDbLine
 10
-53.606608262757
 20
23.63710967117176
 30
0.0
 11
-54.60660826427699
 21
23.63710967117176
 31
0.0
  0
LINE
  5
375
330
2
100
AcDbEntity
  8
0
  6
Continuous
 62
     1
100
AcDbLine
 10
-89.906608263577
 20
23.63710967117176
 30
0.0
 11
-88.90660826205699
 21
23.63710967117176
 31
0.0
  0
LINE
  5
376
330
2
100
AcDbEntity
  8
0
  6
Continuous
 62
     1
100
AcDbLine
 10
-87.506608262977
 20
23.63710967117176
 30
0.0
 11
-86.50660826399699
 21
23.63710967117176
 31
0.0
  0
LINE
  5
377
330
2
100
AcDbEntity
  8
0
  6
Continuous
 62
     1
100
AcDbLine
 10
-85.106608262377
 20
23.63710967117176
 30
0.0
 11
-84.10660826339698
 21
23.63710967117176
 31
0.0
  0
LINE
  5
378
330
2
100
AcDbEntity
  8
0
  6
Continuous
 62
     1
100
AcDbLine
 10
-82.70660826431699
 20
23.63710967117176
 30
0.0
 11
-81.706608262797
 21
23.63710967117176
 31
0.0
  0
LINE
  5
379
330
2
100
AcDbEntity
  8
0
  6
Continuous
 62
     7
100
AcDbLine
 10
-45.15660826413699
 20
23.93710967061178
 30
0.0
 11
-64.40660826291699
 21
23.93710967061178
 31
0.0
  0
LINE
  5
37A
330
2
100
AcDbEntity
  8
0
  6
Continuous
 62
     7
100
AcDbLine
 10
-71.906608264157
 20
23.93710967061178
 30
0.0
 11
-91.156608262937
 21
23.93710967061178
 31
0.0
  0
LINE
  5
37B
330
2
100
AcDbEntity
  8
0
  6
Continuous
 62
     5
100
AcDbLine
 10
-49.00628464655699
 20
12.48711791227178
 30
0.0
 11
-49.07518301523699
 21
12.53711791387177
 31
0.0
  0
LINE
  5
37C
330
2
100
AcDbEntity
  8
0
  6
Continuous
 62
     5
100
AcDbLine
 10
-48.761336360737
 20
6.131304304391775
 30
0.0
 11
-48.25918945545699
 21
5.438278149171779
 31
0.0
  0
LINE
  5
37D
330
2
100
AcDbEntity
  8
0
  6
Continuous
 62
     1
100
AcDbLine
 10
-54.60660826427699
 20
23.63710967117176
 30
0.0
 11
-54.60660826427699
 21
22.13710967143179
 31
0.0
  0
LINE
  5
37E
330
2
100
AcDbEntity
  8
0
  6
Continuous
 62
     1
100
AcDbLine
 10
-53.606608262757
 20
22.13710967143179
 30
0.0
 11
-53.606608262757
 21
23.63710967117176
 31
0.0
  0
LINE
  5
37F
330
2
100
AcDbEntity
  8
0
  6
Continuous
 62
     5
100
AcDbLine
 10
-44.059576254497
 20
12.63711791199178
 30
0.0
 11
-44.19737298931699
 21
12.53711791387177
 31
0.0
  0
LINE
  5
380
330
2
100
AcDbEntity
  8
0
  6
Continuous
 62
     5
100
AcDbLine
 10
-43.63691723951698
 20
12.63711791199178
 30
0.0
 11
-43.84361234301699
 21
12.48711791227178
 31
0.0
  0
LINE
  5
381
330
2
100
AcDbEntity
  8
0
  6
Continuous
 62
     3
100
AcDbLine
 10
-66.65660826379699
 20
25.43710967035178
 30
0.0
 11
-69.65660826327699
 21
25.43710967035178
 31
0.0
  0
LINE
  5
382
330
2
100
AcDbEntity
  8
0
  6
Continuous
 62
     5
100
AcDbLine
 10
-47.17766432107699
 20
12.63711791199178
 30
0.0
 11
-47.03986758371698
 21
12.53711791387177
 31
0.0
  0
LINE
  5
383
330
2
100
AcDbEntity
  8
0
  6
Continuous
 62
     5
100
AcDbLine
 10
-46.139069215137
 20
5.438278149171779
 30
0.0
 11
-46.64121612041698
 21
6.131304304391775
 31
0.0
  0
LINE
  5
384
330
2
100
AcDbEntity
  8
0
  6
Continuous
 62
     1
100
AcDbLine
 10
-52.206608263677
 20
23.63710967117176
 30
0.0
 11
-52.206608263677
 21
22.13710967143179
 31
0.0
  0
LINE
  5
385
330
2
100
AcDbEntity
  8
0
  6
Continuous
 62
     3
100
AcDbLine
 10
-69.65660826327699
 20
26.93710967263176
 30
0.0
 11
-66.65660826379699
 21
26.93710967263176
 31
0.0
  0
LINE
  5
386
330
2
100
AcDbEntity
  8
0
  6
Continuous
 62
     7
100
AcDbLine
 10
-71.906608264157
 20
27.23710967207178
 30
0.0
 11
-64.40660826291699
 21
27.23710967207178
 31
0.0
  0
LINE
  5
387
330
2
100
AcDbEntity
  8
0
  6
Continuous
 62
     1
100
AcDbLine
 10
-51.20660826215699
 20
22.13710967143179
 30
0.0
 11
-51.20660826215699
 21
23.63710967117176
 31
0.0
  0
LINE
  5
388
330
2
100
AcDbEntity
  8
0
  6
Continuous
 62
     1
100
AcDbLine
 10
-49.80660826307699
 20
23.63710967117176
 30
0.0
 11
-49.80660826307699
 21
22.13710967143179
 31
0.0
  0
LINE
  5
389
330
2
100
AcDbEntity
  8
0
  6
Continuous
 62
     5
100
AcDbLine
 10
-49.51374847033699
 20
12.48711791227178
 30
0.0
 11
-49.51374847033699
 21
4.137109672011789
 31
0.0
  0
LINE
  5
38A
330
2
100
AcDbEntity
  8
0
  6
Continuous
 62
     5
100
AcDbLine
 10
-49.46602914743699
 20
12.63711791199178
 30
0.0
 11
-49.51374847033699
 21
12.48711791227178
 31
0.0
  0
LINE
  5
38B
330
2
100
AcDbEntity
  8
0
  6
Continuous
 62
     5
100
AcDbLine
 10
-49.043370132457
 20
12.63711791199178
 30
0.0
 11
-49.07518301523699
 21
12.53711791387177
 31
0.0
  0
LINE
  5
38C
330
2
100
AcDbEntity
  8
0
  6
Continuous
 62
     5
100
AcDbLine
 10
-47.72491339929699
 20
9.738882103191784
 30
0.0
 11
-48.264242561937
 21
10.92026292559178
 31
0.0
  0
LINE
  5
38D
330
2
100
AcDbEntity
  8
0
  6
Continuous
 62
     5
100
AcDbLine
 10
-48.264242561937
 20
11.15008055587178
 30
0.0
 11
-47.664691480117
 21
9.836785818991771
 31
0.0
  0
LINE
  5
38E
330
2
100
AcDbEntity
  8
0
  6
Continuous
 62
     5
100
AcDbLine
 10
-47.198265026637
 20
9.836785818991771
 30
0.0
 11
-47.79781611099699
 21
11.15008055587178
 31
0.0
  0
LINE
  5
38F
330
2
100
AcDbEntity
  8
0
  6
Continuous
 62
     5
100
AcDbLine
 10
-49.14408138391699
 20
6.131304304391775
 30
0.0
 11
-49.14408138391699
 21
12.48711791227178
 31
0.0
  0
LINE
  5
390
330
2
100
AcDbEntity
  8
0
  6
Continuous
 62
     5
100
AcDbLine
 10
-49.00628464655699
 20
6.131304304391775
 30
0.0
 11
-49.00628464655699
 21
12.48711791227178
 31
0.0
  0
LINE
  5
391
330
2
100
AcDbEntity
  8
0
  6
Continuous
 62
     1
100
AcDbLine
 10
-48.806608264097
 20
22.13710967143179
 30
0.0
 11
-48.806608264097
 21
23.63710967117176
 31
0.0
  0
LINE
  5
392
330
2
100
AcDbEntity
  8
0
  6
Continuous
 62
     5
100
AcDbLine
 10
-48.264242561937
 20
11.15008055587178
 30
0.0
 11
-48.264242561937
 21
10.92026292559178
 31
0.0
  0
LINE
  5
393
330
2
100
AcDbEntity
  8
0
  6
Continuous
 62
     5
100
AcDbLine
 10
-48.036452898137
 20
8.53561734183178
 30
0.0
 11
-48.036452898137
 21
7.941603142511766
 31
0.0
  0
LINE
  5
394
330
2
100
AcDbEntity
  8
0
  6
Continuous
 62
     5
100
AcDbLine
 10
-47.95696500783699
 20
7.941603142511766
 30
0.0
 11
-47.95696500783699
 21
8.53561734183178
 31
0.0
  0
LINE
  5
395
330
2
100
AcDbEntity
  8
0
  6
Continuous
 62
     5
100
AcDbLine
 10
-47.52472413241699
 20
4.137109672011789
 30
0.0
 11
-47.52472413241699
 21
5.438278149171779
 31
0.0
  0
LINE
  5
396
330
2
100
AcDbEntity
  8
0
  6
Continuous
 62
     5
100
AcDbLine
 10
-47.49053855689699
 20
7.941603142511766
 30
0.0
 11
-47.49053855689699
 21
8.53561734183178
 31
0.0
  0
LINE
  5
397
330
2
100
AcDbEntity
  8
0
  6
Continuous
 62
     1
100
AcDbLine
 10
-47.406608262477
 20
23.63710967117176
 30
0.0
 11
-47.406608262477
 21
22.13710967143179
 31
0.0
  0
LINE
  5
398
330
2
100
AcDbEntity
  8
0
  6
Continuous
 62
     5
100
AcDbLine
 10
-47.055774026377
 20
12.48711791227178
 30
0.0
 11
-47.03986758371698
 21
12.53711791387177
 31
0.0
  0
LINE
  5
399
330
2
100
AcDbEntity
  8
0
  6
Continuous
 62
     5
100
AcDbLine
 10
-47.03986758371698
 20
12.53711791387177
 30
0.0
 11
-47.02396114359699
 21
12.48711791227178
 31
0.0
  0
LINE
  5
39A
330
2
100
AcDbEntity
  8
0
  6
Continuous
 62
     5
100
AcDbLine
 10
-47.055774026377
 20
6.131304304391775
 30
0.0
 11
-47.055774026377
 21
12.48711791227178
 31
0.0
  0
LINE
  5
39B
330
2
100
AcDbEntity
  8
0
  6
Continuous
 62
     5
100
AcDbLine
 10
-47.02396114359699
 20
6.131304304391775
 30
0.0
 11
-47.02396114359699
 21
12.48711791227178
 31
0.0
  0
LINE
  5
39C
330
2
100
AcDbEntity
  8
0
  6
Continuous
 62
     1
100
AcDbLine
 10
-46.40660826349699
 20
22.13710967143179
 30
0.0
 11
-46.40660826349699
 21
23.63710967117176
 31
0.0
  0
LINE
  5
39D
330
2
100
AcDbEntity
  8
0
  6
Continuous
 62
     5
100
AcDbLine
 10
-45.832636683477
 20
4.137109672011789
 30
0.0
 11
-45.832636683477
 21
5.438278149171779
 31
0.0
  0
LINE
  5
39E
330
2
100
AcDbEntity
  8
0
  6
Continuous
 62
     7
100
AcDbLine
 10
-45.15660826413699
 20
23.93710967061178
 30
0.0
 11
-45.15660826413699
 21
17.93710967165178
 31
0.0
  0
LINE
  5
39F
330
2
100
AcDbEntity
  8
0
  6
Continuous
 62
     5
100
AcDbLine
 10
-44.19737298931699
 20
12.53711791387177
 30
0.0
 11
-44.213279431977
 21
12.48711791227178
 31
0.0
  0
LINE
  5
3A0
330
2
100
AcDbEntity
  8
0
  6
Continuous
 62
     5
100
AcDbLine
 10
-45.09817135789698
 20
5.438278149171779
 30
0.0
 11
-44.59602445515701
 21
6.131304304391775
 31
0.0
  0
LINE
  5
3A1
330
2
100
AcDbEntity
  8
0
  6
Continuous
 62
     5
100
AcDbLine
 10
-44.213279431977
 20
6.131304304391775
 30
0.0
 11
-44.213279431977
 21
12.48711791227178
 31
0.0
  0
LINE
  5
3A2
330
2
100
AcDbEntity
  8
0
  6
Continuous
 62
     5
100
AcDbLine
 10
-43.84361234301699
 20
12.48711791227178
 30
0.0
 11
-43.84361234301699
 21
4.137109672011789
 31
0.0
  0
LINE
  5
3A3
330
2
100
AcDbEntity
  8
0
  6
Continuous
 62
     5
100
AcDbLine
 10
-43.63691723951698
 20
12.63711791199178
 30
0.0
 11
-43.63691723951698
 21
4.137109672011789
 31
0.0
  0
LINE
  5
3A4
330
2
100
AcDbEntity
  8
0
  6
Continuous
 62
     5
100
AcDbLine
 10
-41.77121142813699
 20
12.63711791199178
 30
0.0
 11
-41.77121142813699
 21
4.137109672011789
 31
0.0
  0
LINE
  5
3A5
330
2
100
AcDbEntity
  8
0
  6
Continuous
 62
     5
100
AcDbLine
 10
-41.72349210269699
 20
12.48711791227178
 30
0.0
 11
-41.72349210269699
 21
4.137109672011789
 31
0.0
  0
LINE
  5
3A6
330
2
100
AcDbEntity
  8
0
  6
Continuous
 62
     7
100
AcDbLine
 10
-41.15660826313699
 20
4.137109672011789
 30
0.0
 11
-41.15660826313699
 21
3.137109670491781
 31
0.0
  0
LINE
  5
3A7
330
2
100
AcDbEntity
  8
0
  6
Continuous
 62
     5
100
AcDbLine
 10
-41.77121142813699
 20
12.63711791199178
 30
0.0
 11
-41.72349210269699
 21
12.48711791227178
 31
0.0
  0
LINE
  5
3A8
330
2
100
AcDbEntity
  8
0
  6
Continuous
 62
     7
100
AcDbLine
 10
-95.15660826393698
 20
70.01797621329178
 30
0.0
 11
-95.15660826393698
 21
74.98954017667177
 31
0.0
  0
LINE
  5
3A9
330
2
100
AcDbEntity
  8
0
  6
Continuous
 62
     7
100
AcDbLine
 10
-94.542005098937
 20
71.88992555803179
 30
0.0
 11
-94.58972442183698
 21
72.09662066153175
 31
0.0
  0
LINE
  5
3AA
330
2
100
AcDbEntity
  8
0
  6
Continuous
 62
     7
100
AcDbLine
 10
-94.119346083957
 20
72.56632137313175
 30
0.0
 11
-94.151158966737
 21
72.70411811049178
 31
0.0
  0
LINE
  5
3AB
330
2
100
AcDbEntity
  8
0
  6
Continuous
 62
     7
100
AcDbLine
 10
-91.156608262937
 20
66.80375871235177
 30
0.0
 11
-91.156608262937
 21
66.00375871215176
 31
0.0
  0
LINE
  5
3AC
330
2
100
AcDbEntity
  8
0
  6
Continuous
 62
     7
100
AcDbLine
 10
-92.13174997787699
 20
71.50121024453176
 30
0.0
 11
-92.09993709509699
 21
71.36341350717174
 31
0.0
  0
LINE
  5
3AD
330
2
100
AcDbEntity
  8
0
  6
Continuous
 62
     7
100
AcDbLine
 10
-89.906608263577
 20
65.50375871393178
 30
0.0
 11
-89.906608263577
 21
66.00375871215176
 31
0.0
  0
LINE
  5
3AE
330
2
100
AcDbEntity
  8
0
  6
Continuous
 62
     7
100
AcDbLine
 10
-88.90660826205699
 20
65.50375871393178
 30
0.0
 11
-88.90660826205699
 21
66.00375871215176
 31
0.0
  0
LINE
  5
3AF
330
2
100
AcDbEntity
  8
0
  6
Continuous
 62
     7
100
AcDbLine
 10
-89.957704836517
 20
79.60375554309178
 30
0.0
 11
-90.377959919297
 21
78.93120681961176
 31
0.0
  0
LINE
  5
3B0
330
2
100
AcDbEntity
  8
0
  6
Continuous
 62
     7
100
AcDbLine
 10
-93.216157608397
 20
74.38914105997179
 30
0.0
 11
-93.63641269371699
 21
73.71659233649177
 31
0.0
  0
LINE
  5
3B1
330
2
100
AcDbEntity
  8
0
  6
Continuous
 62
     7
100
AcDbLine
 10
-92.60070008391698
 20
75.27972499127173
 30
0.0
 11
-94.58972442183698
 21
72.09662066153175
 31
0.0
  0
LINE
  5
3B2
330
2
100
AcDbEntity
  8
0
  6
Continuous
 62
     7
100
AcDbLine
 10
-90.90861263497698
 20
77.98763096229174
 30
0.0
 11
-88.919588294517
 21
81.1707352920318
 31
0.0
  0
LINE
  5
3B3
330
2
100
AcDbEntity
  8
0
  6
Continuous
 62
     7
100
AcDbLine
 10
-94.119346083957
 20
72.56632137313175
 30
0.0
 11
-94.542005098937
 21
71.88992555803179
 31
0.0
  0
LINE
  5
3B4
330
2
100
AcDbEntity
  8
0
  6
Continuous
 62
     7
100
AcDbLine
 10
-89.13555220599699
 20
80.54205879983175
 30
0.0
 11
-88.712893191017
 21
81.21845461493178
 31
0.0
  0
LINE
  5
3B5
330
2
100
AcDbEntity
  8
0
  6
Continuous
 62
     7
100
AcDbLine
 10
-88.515400416077
 20
79.97766819379177
 30
0.0
 11
-89.23417065747699
 21
78.82739535845178
 31
0.0
  0
LINE
  5
3B6
330
2
100
AcDbEntity
  8
0
  6
Continuous
 62
     7
100
AcDbLine
 10
-92.621447700537
 20
73.40661894831175
 30
0.0
 11
-93.340218515977
 21
72.25634519603175
 31
0.0
  0
LINE
  5
3B7
330
2
100
AcDbEntity
  8
0
  6
Continuous
 62
     7
100
AcDbLine
 10
-92.87379206249699
 20
71.96488959911175
 30
0.0
 11
-92.155021821097
 21
73.11516243445175
 31
0.0
  0
LINE
  5
3B8
330
2
100
AcDbEntity
  8
0
  6
Continuous
 62
     7
100
AcDbLine
 10
-88.76774477803699
 20
78.53593884713177
 30
0.0
 11
-88.04897396259699
 21
79.68621259941176
 31
0.0
  0
LINE
  5
3B9
330
2
100
AcDbEntity
  8
0
  6
Continuous
 62
     7
100
AcDbLine
 10
-87.506608262977
 20
65.50375871393178
 30
0.0
 11
-87.506608262977
 21
66.00375871215176
 31
0.0
  0
LINE
  5
3BA
330
2
100
AcDbEntity
  8
0
  6
Continuous
 62
     7
100
AcDbLine
 10
-92.253640272577
 20
71.40049899307178
 30
0.0
 11
-92.67629928755699
 21
70.72410317797181
 31
0.0
  0
LINE
  5
3BB
330
2
100
AcDbEntity
  8
0
  6
Continuous
 62
     7
100
AcDbLine
 10
-87.26984639461699
 20
79.37623641977177
 30
0.0
 11
-86.84718737963699
 21
80.0526322348718
 31
0.0
  0
LINE
  5
3BC
330
2
100
AcDbEntity
  8
0
  6
Continuous
 62
     7
100
AcDbLine
 10
-92.46960418151699
 20
70.77182250087179
 30
0.0
 11
-90.48057984359699
 21
73.95492683315177
 31
0.0
  0
LINE
  5
3BD
330
2
100
AcDbEntity
  8
0
  6
Continuous
 62
     7
100
AcDbLine
 10
-88.78849239465699
 20
76.66283280163179
 30
0.0
 11
-86.79946805419699
 21
79.84593713137178
 31
0.0
  0
LINE
  5
3BE
330
2
100
AcDbEntity
  8
0
  6
Continuous
 62
     7
100
AcDbLine
 10
-91.43148764205699
 20
72.33880224981175
 30
0.0
 11
-91.01123255927699
 21
73.01135097329177
 31
0.0
  0
LINE
  5
3BF
330
2
100
AcDbEntity
  8
0
  6
Continuous
 62
     7
100
AcDbLine
 10
-88.17303487017699
 20
77.55341673293179
 30
0.0
 11
-87.752779784857
 21
78.22596545641175
 31
0.0
  0
LINE
  5
3C0
330
2
100
AcDbEntity
  8
0
  6
Continuous
 62
     7
100
AcDbLine
 10
-86.50660826399699
 20
65.50375871393178
 30
0.0
 11
-86.50660826399699
 21
66.00375871215176
 31
0.0
  0
LINE
  5
3C1
330
2
100
AcDbEntity
  8
0
  6
Continuous
 62
     7
100
AcDbLine
 10
-85.106608262377
 20
65.50375871393178
 30
0.0
 11
-85.106608262377
 21
66.00375871215176
 31
0.0
  0
LINE
  5
3C2
330
2
100
AcDbEntity
  8
0
  6
Continuous
 62
     7
100
AcDbLine
 10
-89.25744250069699
 20
80.44134755091176
 30
0.0
 11
-89.289255383477
 21
80.57914428573178
 31
0.0
  0
LINE
  5
3C3
330
2
100
AcDbEntity
  8
0
  6
Continuous
 62
     7
100
AcDbLine
 10
-87.26984639461699
 20
79.37623641977177
 30
0.0
 11
-87.23803351183699
 21
79.23843968495174
 31
0.0
  0
LINE
  5
3C4
330
2
100
AcDbEntity
  8
0
  6
Continuous
 62
     7
100
AcDbLine
 10
-84.10660826339698
 20
65.50375871393178
 30
0.0
 11
-84.10660826339698
 21
66.00375871215176
 31
0.0
  0
LINE
  5
3C5
330
2
100
AcDbEntity
  8
0
  6
Continuous
 62
     7
100
AcDbLine
 10
-86.84718737963699
 20
80.0526322348718
 30
0.0
 11
-86.79946805419699
 21
79.84593713137178
 31
0.0
  0
LINE
  5
3C6
330
2
100
AcDbEntity
  8
0
  6
Continuous
 62
     7
100
AcDbLine
 10
-82.70660826431699
 20
65.50375871393178
 30
0.0
 11
-82.70660826431699
 21
66.00375871215176
 31
0.0
  0
LINE
  5
3C7
330
2
100
AcDbEntity
  8
0
  6
Continuous
 62
     7
100
AcDbLine
 10
-81.706608262797
 20
65.50375871393178
 30
0.0
 11
-81.706608262797
 21
66.00375871215176
 31
0.0
  0
LINE
  5
3C8
330
2
100
AcDbEntity
  8
0
  6
Continuous
 62
     7
100
AcDbLine
 10
-92.67629928755699
 20
70.72410317797181
 30
0.0
 11
-94.542005098937
 21
71.88992555803179
 31
0.0
  0
LINE
  5
3C9
330
2
100
AcDbEntity
  8
0
  6
Continuous
 62
     7
100
AcDbLine
 10
-92.253640272577
 20
71.40049899307178
 30
0.0
 11
-94.119346083957
 21
72.56632137313175
 31
0.0
  0
LINE
  5
3CA
330
2
100
AcDbEntity
  8
0
  6
Continuous
 62
     7
100
AcDbLine
 10
-92.13174997787699
 20
71.50121024453176
 30
0.0
 11
-94.08226059805699
 21
72.72002455061175
 31
0.0
  0
LINE
  5
3CB
330
2
100
AcDbEntity
  8
0
  6
Continuous
 62
     7
100
AcDbLine
 10
-91.71719207191699
 20
71.97593358261179
 30
0.0
 11
-92.544038965337
 21
72.49260486575178
 31
0.0
  0
LINE
  5
3CC
330
2
100
AcDbEntity
  8
0
  6
Continuous
 62
     7
100
AcDbLine
 10
-93.01046541881699
 20
72.7840604601318
 30
0.0
 11
-93.83731231223698
 21
73.30073174327174
 31
0.0
  0
LINE
  5
3CD
330
2
100
AcDbEntity
  8
0
  6
Continuous
 62
     7
100
AcDbLine
 10
-93.63641269371699
 20
73.71659233649177
 30
0.0
 11
-93.59401028931699
 21
73.69009637221177
 31
0.0
  0
LINE
  5
3CE
330
2
100
AcDbEntity
  8
0
  6
Continuous
 62
     7
100
AcDbLine
 10
-91.47389004899698
 20
72.36529821155176
 30
0.0
 11
-91.43148764205699
 21
72.33880224981175
 31
0.0
  0
LINE
  5
3CF
330
2
100
AcDbEntity
  8
0
  6
Continuous
 62
     7
100
AcDbLine
 10
-92.27424097813701
 20
72.92437189909179
 30
0.0
 11
-92.740667431617
 21
73.21582749601174
 31
0.0
  0
LINE
  5
3D0
330
2
100
AcDbEntity
  8
0
  6
Continuous
 62
     7
100
AcDbLine
 10
-92.15502800345699
 20
73.11515254115175
 30
0.0
 11
-92.62145445693699
 21
73.40660813553177
 31
0.0
  0
LINE
  5
3D1
330
2
100
AcDbEntity
  8
0
  6
Continuous
 62
     7
100
AcDbLine
 10
-91.21504516917699
 20
72.77953661091181
 30
0.0
 11
-93.335165409497
 21
74.10433477157176
 31
0.0
  0
LINE
  5
3D2
330
2
100
AcDbEntity
  8
0
  6
Continuous
 62
     7
100
AcDbLine
 10
-91.01123255927699
 20
73.01135097329177
 30
0.0
 11
-91.05363496367699
 21
73.03784693503178
 31
0.0
  0
LINE
  5
3D3
330
2
100
AcDbEntity
  8
0
  6
Continuous
 62
     7
100
AcDbLine
 10
-93.17375520399698
 20
74.36264509569179
 30
0.0
 11
-93.216157608397
 21
74.38914105997179
 31
0.0
  0
LINE
  5
3D4
330
2
100
AcDbEntity
  8
0
  6
Continuous
 62
     7
100
AcDbLine
 10
-77.15660826451699
 20
62.60375871257178
 30
0.0
 11
-59.15660826255699
 21
62.60375871257178
 31
0.0
  0
LINE
  5
3D5
330
2
100
AcDbEntity
  8
0
  6
Continuous
 62
     7
100
AcDbLine
 10
-90.48057984359699
 20
73.95492683315177
 30
0.0
 11
-92.60070008391698
 21
75.27972499127173
 31
0.0
  0
LINE
  5
3D6
330
2
100
AcDbEntity
  8
0
  6
Continuous
 62
     7
100
AcDbLine
 10
-77.15660826451699
 20
66.00375871215176
 30
0.0
 11
-77.15660826451699
 21
62.60375871257178
 31
0.0
  0
LINE
  5
3D7
330
2
100
AcDbEntity
  8
0
  6
Continuous
 62
     7
100
AcDbLine
 10
-78.15662082887699
 20
63.73362890393178
 30
0.0
 11
-77.15660826451699
 21
63.73369654413178
 31
0.0
  0
LINE
  5
3D8
330
2
100
AcDbEntity
  8
0
  6
Continuous
 62
     7
100
AcDbLine
 10
-59.15660826255699
 20
63.73491403217177
 30
0.0
 11
-58.156581580877
 21
63.73498167237177
 31
0.0
  0
LINE
  5
3D9
330
2
100
AcDbEntity
  8
0
  6
Continuous
 62
     7
100
AcDbLine
 10
-69.65660826327699
 20
65.00375871317176
 30
0.0
 11
-66.65660826379699
 21
65.00375871317176
 31
0.0
  0
LINE
  5
3DA
330
2
100
AcDbEntity
  8
0
  6
Continuous
 62
     7
100
AcDbLine
 10
-46.40660826349699
 20
65.50375871393178
 30
0.0
 11
-47.406608262477
 21
65.50375871393178
 31
0.0
  0
LINE
  5
3DB
330
2
100
AcDbEntity
  8
0
  6
Continuous
 62
     7
100
AcDbLine
 10
-48.806608264097
 20
65.50375871393178
 30
0.0
 11
-49.80660826307699
 21
65.50375871393178
 31
0.0
  0
LINE
  5
3DC
330
2
100
AcDbEntity
  8
0
  6
Continuous
 62
     7
100
AcDbLine
 10
-51.20660826215699
 20
65.50375871393178
 30
0.0
 11
-52.206608263677
 21
65.50375871393178
 31
0.0
  0
LINE
  5
3DD
330
2
100
AcDbEntity
  8
0
  6
Continuous
 62
     7
100
AcDbLine
 10
-53.606608262757
 20
65.50375871393178
 30
0.0
 11
-54.60660826427699
 21
65.50375871393178
 31
0.0
  0
LINE
  5
3DE
330
2
100
AcDbEntity
  8
0
  6
Continuous
 62
     7
100
AcDbLine
 10
-89.906608263577
 20
65.50375871393178
 30
0.0
 11
-88.90660826205699
 21
65.50375871393178
 31
0.0
  0
LINE
  5
3DF
330
2
100
AcDbEntity
  8
0
  6
Continuous
 62
     7
100
AcDbLine
 10
-87.506608262977
 20
65.50375871393178
 30
0.0
 11
-86.50660826399699
 21
65.50375871393178
 31
0.0
  0
LINE
  5
3E0
330
2
100
AcDbEntity
  8
0
  6
Continuous
 62
     7
100
AcDbLine
 10
-85.106608262377
 20
65.50375871393178
 30
0.0
 11
-84.10660826339698
 21
65.50375871393178
 31
0.0
  0
LINE
  5
3E1
330
2
100
AcDbEntity
  8
0
  6
Continuous
 62
     7
100
AcDbLine
 10
-82.70660826431699
 20
65.50375871393178
 30
0.0
 11
-81.706608262797
 21
65.50375871393178
 31
0.0
  0
LINE
  5
3E2
330
2
100
AcDbEntity
  8
0
  6
Continuous
 62
     7
100
AcDbLine
 10
-91.156608262937
 20
66.00375871215176
 30
0.0
 11
-45.15660826413699
 21
66.00375871215176
 31
0.0
  0
LINE
  5
3E3
330
2
100
AcDbEntity
  8
0
  6
Continuous
 62
     7
100
AcDbLine
 10
-88.78849239465699
 20
76.66283280163179
 30
0.0
 11
-90.90861263497698
 21
77.98763096229174
 31
0.0
  0
LINE
  5
3E4
330
2
100
AcDbEntity
  8
0
  6
Continuous
 62
     7
100
AcDbLine
 10
-90.377959919297
 20
78.93120681961176
 30
0.0
 11
-90.33555751489698
 21
78.9047108578718
 31
0.0
  0
LINE
  5
3E5
330
2
100
AcDbEntity
  8
0
  6
Continuous
 62
     7
100
AcDbLine
 10
-88.21543727457699
 20
77.57991269721173
 30
0.0
 11
-88.17303487017699
 21
77.55341673293179
 31
0.0
  0
LINE
  5
3E6
330
2
100
AcDbEntity
  8
0
  6
Continuous
 62
     7
100
AcDbLine
 10
-88.05402706907699
 20
77.83822302133177
 30
0.0
 11
-90.174147309397
 21
79.16302118199178
 31
0.0
  0
LINE
  5
3E7
330
2
100
AcDbEntity
  8
0
  6
Continuous
 62
     7
100
AcDbLine
 10
-71.906608264157
 20
66.80375871235177
 30
0.0
 11
-71.906608264157
 21
66.00375871215176
 31
0.0
  0
LINE
  5
3E8
330
2
100
AcDbEntity
  8
0
  6
Continuous
 62
     7
100
AcDbLine
 10
-91.156608262937
 20
66.80375871235177
 30
0.0
 11
-45.15660826413699
 21
66.80375871235177
 31
0.0
  0
LINE
  5
3E9
330
2
100
AcDbEntity
  8
0
  6
Continuous
 62
     7
100
AcDbLine
 10
-89.234164475117
 20
78.82740525175177
 30
0.0
 11
-88.767738021637
 21
78.53594965737176
 31
0.0
  0
LINE
  5
3EA
330
2
100
AcDbEntity
  8
0
  6
Continuous
 62
     7
100
AcDbLine
 10
-89.114951500437
 20
79.01818589381173
 30
0.0
 11
-88.64852504695699
 21
78.72673029689178
 31
0.0
  0
LINE
  5
3EB
330
2
100
AcDbEntity
  8
0
  6
Continuous
 62
     7
100
AcDbLine
 10
-87.752779784857
 20
78.22596545641175
 30
0.0
 11
-87.795182189257
 21
78.25246142069175
 31
0.0
  0
LINE
  5
3EC
330
2
100
AcDbEntity
  8
0
  6
Continuous
 62
     7
100
AcDbLine
 10
-89.91530242957699
 20
79.57725958135177
 30
0.0
 11
-89.957704836517
 21
79.60375554309178
 31
0.0
  0
LINE
  5
3ED
330
2
100
AcDbEntity
  8
0
  6
Continuous
 62
     7
100
AcDbLine
 10
-87.55188016633699
 20
78.64182604963179
 30
0.0
 11
-88.378727059757
 21
79.15849733277173
 31
0.0
  0
LINE
  5
3EE
330
2
100
AcDbEntity
  8
0
  6
Continuous
 62
     7
100
AcDbLine
 10
-88.84515351323699
 20
79.44995292715174
 30
0.0
 11
-89.672000406657
 21
79.96662421029174
 31
0.0
  0
LINE
  5
3EF
330
2
100
AcDbEntity
  8
0
  6
Continuous
 62
     7
100
AcDbLine
 10
-87.306931880517
 20
79.22253324229178
 30
0.0
 11
-89.25744250069699
 21
80.44134755091176
 31
0.0
  0
LINE
  5
3F0
330
2
100
AcDbEntity
  8
0
  6
Continuous
 62
     7
100
AcDbLine
 10
-87.26984639461699
 20
79.37623641977177
 30
0.0
 11
-89.13555220599699
 21
80.54205879983175
 31
0.0
  0
LINE
  5
3F1
330
2
100
AcDbEntity
  8
0
  6
Continuous
 62
     7
100
AcDbLine
 10
-86.84718737963699
 20
80.0526322348718
 30
0.0
 11
-88.712893191017
 21
81.21845461493178
 31
0.0
  0
LINE
  5
3F2
330
2
100
AcDbEntity
  8
0
  6
Continuous
 62
     7
100
AcDbLine
 10
-69.65660826327699
 20
65.00375871317176
 30
0.0
 11
-69.65660826327699
 21
66.00375871215176
 31
0.0
  0
LINE
  5
3F3
330
2
100
AcDbEntity
  8
0
  6
Continuous
 62
     7
100
AcDbLine
 10
-66.65660826379699
 20
65.00375871317176
 30
0.0
 11
-66.65660826379699
 21
66.00375871215176
 31
0.0
  0
LINE
  5
3F4
330
2
100
AcDbEntity
  8
0
  6
Continuous
 62
     7
100
AcDbLine
 10
-64.40660826291699
 20
66.80375871235177
 30
0.0
 11
-64.40660826291699
 21
66.00375871215176
 31
0.0
  0
LINE
  5
3F5
330
2
100
AcDbEntity
  8
0
  6
Continuous
 62
     7
100
AcDbLine
 10
-49.46602914743699
 20
80.0526322348718
 30
0.0
 11
-47.60032333605699
 21
81.21845461493178
 31
0.0
  0
LINE
  5
3F6
330
2
100
AcDbEntity
  8
0
  6
Continuous
 62
     7
100
AcDbLine
 10
-49.043370132457
 20
79.37623641977177
 30
0.0
 11
-47.17766432107699
 21
80.54205879983175
 31
0.0
  0
LINE
  5
3F7
330
2
100
AcDbEntity
  8
0
  6
Continuous
 62
     7
100
AcDbLine
 10
-49.00628464655699
 20
79.22253324229178
 30
0.0
 11
-47.055774026377
 21
80.44134755091176
 31
0.0
  0
LINE
  5
3F8
330
2
100
AcDbEntity
  8
0
  6
Continuous
 62
     7
100
AcDbLine
 10
-48.761336360737
 20
78.64182604963179
 30
0.0
 11
-47.93448946731698
 21
79.15849733277173
 31
0.0
  0
LINE
  5
3F9
330
2
100
AcDbEntity
  8
0
  6
Continuous
 62
     7
100
AcDbLine
 10
-47.46806301383699
 20
79.44995292715174
 30
0.0
 11
-46.64121612041698
 21
79.96662421029174
 31
0.0
  0
LINE
  5
3FA
330
2
100
AcDbEntity
  8
0
  6
Continuous
 62
     7
100
AcDbLine
 10
-46.35551169055699
 20
79.60375554309178
 30
0.0
 11
-46.397914094957
 21
79.57725958135177
 31
0.0
  0
LINE
  5
3FB
330
2
100
AcDbEntity
  8
0
  6
Continuous
 62
     7
100
AcDbLine
 10
-48.518034335277
 20
78.25246142069175
 30
0.0
 11
-48.56043674221698
 21
78.22596545641175
 31
0.0
  0
LINE
  5
3FC
330
2
100
AcDbEntity
  8
0
  6
Continuous
 62
     7
100
AcDbLine
 10
-47.664691480117
 20
78.72673029689178
 30
0.0
 11
-47.198265026637
 21
79.01818589381173
 31
0.0
  0
LINE
  5
3FD
330
2
100
AcDbEntity
  8
0
  6
Continuous
 62
     7
100
AcDbLine
 10
-47.54547850543699
 20
78.53594965737176
 30
0.0
 11
-47.07905205195699
 21
78.82740525175177
 31
0.0
  0
LINE
  5
3FE
330
2
100
AcDbEntity
  8
0
  6
Continuous
 62
     7
100
AcDbLine
 10
-48.25918945545699
 20
77.83822302133177
 30
0.0
 11
-46.139069215137
 21
79.16302118199178
 31
0.0
  0
LINE
  5
3FF
330
2
100
AcDbEntity
  8
0
  6
Continuous
 62
     7
100
AcDbLine
 10
-48.140181656897
 20
77.55341673293179
 30
0.0
 11
-48.097779252497
 21
77.57991269721173
 31
0.0
  0
LINE
  5
400
330
2
100
AcDbEntity
  8
0
  6
Continuous
 62
     7
100
AcDbLine
 10
-45.977659012177
 20
78.9047108578718
 30
0.0
 11
-45.935256605237
 21
78.93120681961176
 31
0.0
  0
LINE
  5
401
330
2
100
AcDbEntity
  8
0
  6
Continuous
 62
     7
100
AcDbLine
 10
-92.67629928755699
 20
70.72410317797181
 30
0.0
 11
-92.46960418151699
 21
70.77182250087179
 31
0.0
  0
LINE
  5
402
330
2
100
AcDbEntity
  8
0
  6
Continuous
 62
     7
100
AcDbLine
 10
-92.253640272577
 20
71.40049899307178
 30
0.0
 11
-92.11584353521699
 21
71.43231187585178
 31
0.0
  0
LINE
  5
403
330
2
100
AcDbEntity
  8
0
  6
Continuous
 62
     7
100
AcDbLine
 10
-43.63691723951698
 20
70.72410317797181
 30
0.0
 11
-43.84361234301699
 21
70.77182250087179
 31
0.0
  0
LINE
  5
404
330
2
100
AcDbEntity
  8
0
  6
Continuous
 62
     7
100
AcDbLine
 10
-44.059576254497
 20
71.40049899307178
 30
0.0
 11
-44.19737298931699
 21
71.43231187585178
 31
0.0
  0
LINE
  5
405
330
2
100
AcDbEntity
  8
0
  6
Continuous
 62
     7
100
AcDbLine
 10
-47.52472413241699
 20
76.66283280163179
 30
0.0
 11
-45.404603892097
 21
77.98763096229174
 31
0.0
  0
LINE
  5
406
330
2
100
AcDbEntity
  8
0
  6
Continuous
 62
     7
100
AcDbLine
 10
-94.08226059805699
 20
72.72002455061175
 30
0.0
 11
-94.220057335417
 21
72.68821166783175
 31
0.0
  0
LINE
  5
407
330
2
100
AcDbEntity
  8
0
  6
Continuous
 62
     7
100
AcDbLine
 10
-42.23095592647699
 20
72.72002455061175
 30
0.0
 11
-42.09315919165699
 21
72.68821166783175
 31
0.0
  0
LINE
  5
408
330
2
100
AcDbEntity
  8
0
  6
Continuous
 62
     7
100
AcDbLine
 10
-59.15660826255699
 20
66.00375871215176
 30
0.0
 11
-59.15660826255699
 21
62.60375871257178
 31
0.0
  0
LINE
  5
409
330
2
100
AcDbEntity
  8
0
  6
Continuous
 62
     7
100
AcDbLine
 10
-58.156581580877
 20
81.27253575391177
 30
0.0
 11
-78.15662082887699
 21
81.27388851981175
 31
0.0
  0
LINE
  5
40A
330
2
100
AcDbEntity
  8
0
  6
Continuous
 62
     7
100
AcDbLine
 10
-45.832636683477
 20
73.95492683315177
 30
0.0
 11
-43.712516443157
 21
75.27972499127173
 31
0.0
  0
LINE
  5
40B
330
2
100
AcDbEntity
  8
0
  6
Continuous
 62
     7
100
AcDbLine
 10
-43.09705891867699
 20
74.38914105997179
 30
0.0
 11
-43.139461323077
 21
74.36264509569179
 31
0.0
  0
LINE
  5
40C
330
2
100
AcDbEntity
  8
0
  6
Continuous
 62
     7
100
AcDbLine
 10
-45.25958156339699
 20
73.03784693503178
 30
0.0
 11
-45.301983967797
 21
73.01135097329177
 31
0.0
  0
LINE
  5
40D
330
2
100
AcDbEntity
  8
0
  6
Continuous
 62
     7
100
AcDbLine
 10
-45.09817135789698
 20
72.77953661091181
 30
0.0
 11
-42.97805111757701
 21
74.10433477157176
 31
0.0
  0
LINE
  5
40E
330
2
100
AcDbEntity
  8
0
  6
Continuous
 62
     7
100
AcDbLine
 10
-87.306931880517
 20
79.22253324229178
 30
0.0
 11
-87.16913514315699
 21
79.25434612507178
 31
0.0
  0
LINE
  5
40F
330
2
100
AcDbEntity
  8
0
  6
Continuous
 62
     7
100
AcDbLine
 10
-49.00628464655699
 20
79.22253324229178
 30
0.0
 11
-49.14408138391699
 21
79.25434612507178
 31
0.0
  0
LINE
  5
410
330
2
100
AcDbEntity
  8
0
  6
Continuous
 62
     7
100
AcDbLine
 10
-54.60660826427699
 20
65.50375871393178
 30
0.0
 11
-54.60660826427699
 21
66.00375871215176
 31
0.0
  0
LINE
  5
411
330
2
100
AcDbEntity
  8
0
  6
Continuous
 62
     7
100
AcDbLine
 10
-43.691762070137
 20
73.40660813553177
 30
0.0
 11
-44.158188523617
 21
73.11515254115175
 31
0.0
  0
LINE
  5
412
330
2
100
AcDbEntity
  8
0
  6
Continuous
 62
     7
100
AcDbLine
 10
-43.57254909545699
 20
73.21582749601174
 30
0.0
 11
-44.03897554893698
 21
72.92437189909179
 31
0.0
  0
LINE
  5
413
330
2
100
AcDbEntity
  8
0
  6
Continuous
 62
     7
100
AcDbLine
 10
-44.88172888247698
 20
72.33880224981175
 30
0.0
 11
-44.839326478077
 21
72.36529821155176
 31
0.0
  0
LINE
  5
414
330
2
100
AcDbEntity
  8
0
  6
Continuous
 62
     7
100
AcDbLine
 10
-42.71920623775699
 20
73.69009637221177
 30
0.0
 11
-42.676803833357
 21
73.71659233649177
 31
0.0
  0
LINE
  5
415
330
2
100
AcDbEntity
  8
0
  6
Continuous
 62
     7
100
AcDbLine
 10
-44.59602445515701
 20
71.97593358261179
 30
0.0
 11
-43.76917756173699
 21
72.49260486575178
 31
0.0
  0
LINE
  5
416
330
2
100
AcDbEntity
  8
0
  6
Continuous
 62
     7
100
AcDbLine
 10
-43.302751108257
 20
72.7840604601318
 30
0.0
 11
-42.475904214837
 21
73.30073174327174
 31
0.0
  0
LINE
  5
417
330
2
100
AcDbEntity
  8
0
  6
Continuous
 62
     7
100
AcDbLine
 10
-44.18146654919698
 20
71.50121024453176
 30
0.0
 11
-42.23095592647699
 21
72.72002455061175
 31
0.0
  0
LINE
  5
418
330
2
100
AcDbEntity
  8
0
  6
Continuous
 62
     7
100
AcDbLine
 10
-44.059576254497
 20
71.40049899307178
 30
0.0
 11
-42.19387044311699
 21
72.56632137313175
 31
0.0
  0
LINE
  5
419
330
2
100
AcDbEntity
  8
0
  6
Continuous
 62
     7
100
AcDbLine
 10
-89.13555220599699
 20
80.54205879983175
 30
0.0
 11
-89.27334894335698
 21
80.51024591705175
 31
0.0
  0
LINE
  5
41A
330
2
100
AcDbEntity
  8
0
  6
Continuous
 62
     7
100
AcDbLine
 10
-47.17766432107699
 20
80.54205879983175
 30
0.0
 11
-47.03986758371698
 21
80.51024591705175
 31
0.0
  0
LINE
  5
41B
330
2
100
AcDbEntity
  8
0
  6
Continuous
 62
     7
100
AcDbLine
 10
-53.606608262757
 20
65.50375871393178
 30
0.0
 11
-53.606608262757
 21
66.00375871215176
 31
0.0
  0
LINE
  5
41C
330
2
100
AcDbEntity
  8
0
  6
Continuous
 62
     7
100
AcDbLine
 10
-43.63691723951698
 20
70.72410317797181
 30
0.0
 11
-41.77121142813699
 21
71.88992555803179
 31
0.0
  0
LINE
  5
41D
330
2
100
AcDbEntity
  8
0
  6
Continuous
 62
     7
100
AcDbLine
 10
-88.712893191017
 20
81.21845461493178
 30
0.0
 11
-88.919588294517
 21
81.1707352920318
 31
0.0
  0
LINE
  5
41E
330
2
100
AcDbEntity
  8
0
  6
Continuous
 62
     7
100
AcDbLine
 10
-47.60032333605699
 20
81.21845461493178
 30
0.0
 11
-47.39362823001699
 21
81.1707352920318
 31
0.0
  0
LINE
  5
41F
330
2
100
AcDbEntity
  8
0
  6
Continuous
 62
     7
100
AcDbLine
 10
-52.206608263677
 20
65.50375871393178
 30
0.0
 11
-52.206608263677
 21
66.00375871215176
 31
0.0
  0
LINE
  5
420
330
2
100
AcDbEntity
  8
0
  6
Continuous
 62
     7
100
AcDbLine
 10
-51.20660826215699
 20
65.50375871393178
 30
0.0
 11
-51.20660826215699
 21
66.00375871215176
 31
0.0
  0
LINE
  5
421
330
2
100
AcDbEntity
  8
0
  6
Continuous
 62
     7
100
AcDbLine
 10
-49.46602914743699
 20
80.0526322348718
 30
0.0
 11
-49.51374847033699
 21
79.84593713137178
 31
0.0
  0
LINE
  5
422
330
2
100
AcDbEntity
  8
0
  6
Continuous
 62
     7
100
AcDbLine
 10
-49.043370132457
 20
79.37623641977177
 30
0.0
 11
-49.07518301523699
 21
79.23843968495174
 31
0.0
  0
LINE
  5
423
330
2
100
AcDbEntity
  8
0
  6
Continuous
 62
     7
100
AcDbLine
 10
-49.80660826307699
 20
65.50375871393178
 30
0.0
 11
-49.80660826307699
 21
66.00375871215176
 31
0.0
  0
LINE
  5
424
330
2
100
AcDbEntity
  8
0
  6
Continuous
 62
     7
100
AcDbLine
 10
-47.055774026377
 20
80.44134755091176
 30
0.0
 11
-47.02396114359699
 21
80.57914428573178
 31
0.0
  0
LINE
  5
425
330
2
100
AcDbEntity
  8
0
  6
Continuous
 62
     7
100
AcDbLine
 10
-48.806608264097
 20
65.50375871393178
 30
0.0
 11
-48.806608264097
 21
66.00375871215176
 31
0.0
  0
LINE
  5
426
330
2
100
AcDbEntity
  8
0
  6
Continuous
 62
     7
100
AcDbLine
 10
-47.406608262477
 20
65.50375871393178
 30
0.0
 11
-47.406608262477
 21
66.00375871215176
 31
0.0
  0
LINE
  5
427
330
2
100
AcDbEntity
  8
0
  6
Continuous
 62
     7
100
AcDbLine
 10
-48.56043674221698
 20
78.22596545641175
 30
0.0
 11
-48.140181656897
 21
77.55341673293179
 31
0.0
  0
LINE
  5
428
330
2
100
AcDbEntity
  8
0
  6
Continuous
 62
     7
100
AcDbLine
 10
-45.301983967797
 20
73.01135097329177
 30
0.0
 11
-44.88172888247698
 21
72.33880224981175
 31
0.0
  0
LINE
  5
429
330
2
100
AcDbEntity
  8
0
  6
Continuous
 62
     7
100
AcDbLine
 10
-45.832636683477
 20
73.95492683315177
 30
0.0
 11
-43.84361234301699
 21
70.77182250087179
 31
0.0
  0
LINE
  5
42A
330
2
100
AcDbEntity
  8
0
  6
Continuous
 62
     7
100
AcDbLine
 10
-47.52472413241699
 20
76.66283280163179
 30
0.0
 11
-49.51374847033699
 21
79.84593713137178
 31
0.0
  0
LINE
  5
42B
330
2
100
AcDbEntity
  8
0
  6
Continuous
 62
     7
100
AcDbLine
 10
-44.059576254497
 20
71.40049899307178
 30
0.0
 11
-43.63691723951698
 21
70.72410317797181
 31
0.0
  0
LINE
  5
42C
330
2
100
AcDbEntity
  8
0
  6
Continuous
 62
     7
100
AcDbLine
 10
-49.043370132457
 20
79.37623641977177
 30
0.0
 11
-49.46602914743699
 21
80.0526322348718
 31
0.0
  0
LINE
  5
42D
330
2
100
AcDbEntity
  8
0
  6
Continuous
 62
     7
100
AcDbLine
 10
-48.264242561937
 20
79.68621259941176
 30
0.0
 11
-47.545472320537
 21
78.53593976153177
 31
0.0
  0
LINE
  5
42E
330
2
100
AcDbEntity
  8
0
  6
Continuous
 62
     7
100
AcDbLine
 10
-44.158195277477
 20
73.1151633513918
 30
0.0
 11
-43.43942446457698
 21
71.96488959911175
 31
0.0
  0
LINE
  5
42F
330
2
100
AcDbEntity
  8
0
  6
Continuous
 62
     7
100
AcDbLine
 10
-46.40660826349699
 20
65.50375871393178
 30
0.0
 11
-46.40660826349699
 21
66.00375871215176
 31
0.0
  0
LINE
  5
430
330
2
100
AcDbEntity
  8
0
  6
Continuous
 62
     7
100
AcDbLine
 10
-45.15660826413699
 20
66.80375871235177
 30
0.0
 11
-45.15660826413699
 21
66.00375871215176
 31
0.0
  0
LINE
  5
431
330
2
100
AcDbEntity
  8
0
  6
Continuous
 62
     7
100
AcDbLine
 10
-42.97299801109699
 20
72.25634519603175
 30
0.0
 11
-43.691768252497
 21
73.4066180313718
 31
0.0
  0
LINE
  5
432
330
2
100
AcDbEntity
  8
0
  6
Continuous
 62
     7
100
AcDbLine
 10
-47.07904529555699
 20
78.82739444151178
 30
0.0
 11
-47.79781611099699
 21
79.97766819379177
 31
0.0
  0
LINE
  5
433
330
2
100
AcDbEntity
  8
0
  6
Continuous
 62
     7
100
AcDbLine
 10
-42.19387044311699
 20
72.56632137313175
 30
0.0
 11
-41.77121142813699
 21
71.88992555803179
 31
0.0
  0
LINE
  5
434
330
2
100
AcDbEntity
  8
0
  6
Continuous
 62
     7
100
AcDbLine
 10
-47.17766432107699
 20
80.54205879983175
 30
0.0
 11
-47.60032333605699
 21
81.21845461493178
 31
0.0
  0
LINE
  5
435
330
2
100
AcDbEntity
  8
0
  6
Continuous
 62
     7
100
AcDbLine
 10
-41.72349210269699
 20
72.09662066153175
 30
0.0
 11
-43.712516443157
 21
75.27972499127173
 31
0.0
  0
LINE
  5
436
330
2
100
AcDbEntity
  8
0
  6
Continuous
 62
     7
100
AcDbLine
 10
-45.404603892097
 20
77.98763096229174
 30
0.0
 11
-47.39362823001699
 21
81.1707352920318
 31
0.0
  0
LINE
  5
437
330
2
100
AcDbEntity
  8
0
  6
Continuous
 62
     7
100
AcDbLine
 10
-42.676803833357
 20
73.71659233649177
 30
0.0
 11
-43.09705891867699
 21
74.38914105997179
 31
0.0
  0
LINE
  5
438
330
2
100
AcDbEntity
  8
0
  6
Continuous
 62
     7
100
AcDbLine
 10
-45.935256605237
 20
78.93120681961176
 30
0.0
 11
-46.35551169055699
 21
79.60375554309178
 31
0.0
  0
LINE
  5
439
330
2
100
AcDbEntity
  8
0
  6
Continuous
 62
     7
100
AcDbLine
 10
-44.18146654919698
 20
71.50121024453176
 30
0.0
 11
-44.213279431977
 21
71.36341350717174
 31
0.0
  0
LINE
  5
43A
330
2
100
AcDbEntity
  8
0
  6
Continuous
 62
     7
100
AcDbLine
 10
-41.15660826313699
 20
70.01797621329178
 30
0.0
 11
-41.15660826313699
 21
74.98954017667177
 31
0.0
  0
LINE
  5
43B
330
2
100
AcDbEntity
  8
0
  6
Continuous
 62
     7
100
AcDbLine
 10
-42.19387044311699
 20
72.56632137313175
 30
0.0
 11
-42.162057560337
 21
72.70411811049178
 31
0.0
  0
LINE
  5
43C
330
2
100
AcDbEntity
  8
0
  6
Continuous
 62
     7
100
AcDbLine
 10
-41.77121142813699
 20
71.88992555803179
 30
0.0
 11
-41.72349210269699
 21
72.09662066153175
 31
0.0
  0
LINE
  5
43D
330
2
100
AcDbEntity
  8
0
  6
Continuous
 62
     7
100
AcDbLine
 10
-95.15660826393698
 20
125.7726232661317
 30
0.0
 11
-95.15660826393698
 21
126.7726232651117
 31
0.0
  0
LINE
  5
43E
330
2
100
AcDbEntity
  8
0
  6
Continuous
 62
     7
100
AcDbLine
 10
-94.58972442183698
 20
117.4226150258718
 30
0.0
 11
-94.58972442183698
 21
125.7726232661317
 31
0.0
  0
LINE
  5
43F
330
2
100
AcDbEntity
  8
0
  6
Continuous
 62
     7
100
AcDbLine
 10
-94.220057335417
 20
123.7784286337518
 30
0.0
 11
-94.220057335417
 21
117.4226150258718
 31
0.0
  0
LINE
  5
440
330
2
100
AcDbEntity
  8
0
  6
Continuous
 62
     7
100
AcDbLine
 10
-94.08226059805699
 20
123.7784286337518
 30
0.0
 11
-94.08226059805699
 21
117.4226150258718
 31
0.0
  0
LINE
  5
441
330
2
100
AcDbEntity
  8
0
  6
Continuous
 62
     7
100
AcDbLine
 10
-93.340218515977
 20
118.7596523797318
 30
0.0
 11
-93.340218515977
 21
118.9894700125518
 31
0.0
  0
LINE
  5
442
330
2
100
AcDbEntity
  8
0
  6
Continuous
 62
     7
100
AcDbLine
 10
-93.112428849637
 20
121.3741155963117
 30
0.0
 11
-93.112428849637
 21
121.9681297930918
 31
0.0
  0
LINE
  5
443
330
2
100
AcDbEntity
  8
0
  6
Continuous
 62
     7
100
AcDbLine
 10
-93.03294095933699
 20
121.9681297930918
 30
0.0
 11
-93.03294095933699
 21
121.3741155963117
 31
0.0
  0
LINE
  5
444
330
2
100
AcDbEntity
  8
0
  6
Continuous
 62
     7
100
AcDbLine
 10
-94.542005098937
 20
117.2726150236117
 30
0.0
 11
-94.58972442183698
 21
117.4226150258718
 31
0.0
  0
LINE
  5
445
330
2
100
AcDbEntity
  8
0
  6
Continuous
 62
     7
100
AcDbLine
 10
-94.119346083957
 20
117.2726150236117
 30
0.0
 11
-94.151158966737
 21
117.3726150242717
 31
0.0
  0
LINE
  5
446
330
2
100
AcDbEntity
  8
0
  6
Continuous
 62
     7
100
AcDbLine
 10
-92.60070008391698
 20
125.7726232661317
 30
0.0
 11
-92.60070008391698
 21
124.4714547889717
 31
0.0
  0
LINE
  5
447
330
2
100
AcDbEntity
  8
0
  6
Continuous
 62
     7
100
AcDbLine
 10
-92.56651450839699
 20
121.9681297930918
 30
0.0
 11
-92.56651450839699
 21
121.3741155963117
 31
0.0
  0
LINE
  5
448
330
2
100
AcDbEntity
  8
0
  6
Continuous
 62
     7
100
AcDbLine
 10
-92.13174997787699
 20
123.7784286337518
 30
0.0
 11
-92.13174997787699
 21
117.4226150258718
 31
0.0
  0
LINE
  5
449
330
2
100
AcDbEntity
  8
0
  6
Continuous
 62
     7
100
AcDbLine
 10
-92.09993709509699
 20
123.7784286337518
 30
0.0
 11
-92.09993709509699
 21
117.4226150258718
 31
0.0
  0
LINE
  5
44A
330
2
100
AcDbEntity
  8
0
  6
Continuous
 62
     7
100
AcDbLine
 10
-91.156608262937
 20
111.9726232664917
 30
0.0
 11
-91.156608262937
 21
105.9726232649918
 31
0.0
  0
LINE
  5
44B
330
2
100
AcDbEntity
  8
0
  6
Continuous
 62
     7
100
AcDbLine
 10
-90.90861263497698
 20
125.7726232661317
 30
0.0
 11
-90.90861263497698
 21
124.4714547889717
 31
0.0
  0
LINE
  5
44C
330
2
100
AcDbEntity
  8
0
  6
Continuous
 62
     7
100
AcDbLine
 10
-92.11584353521699
 20
117.3726150242717
 30
0.0
 11
-92.09993709509699
 21
117.4226150258718
 31
0.0
  0
LINE
  5
44D
330
2
100
AcDbEntity
  8
0
  6
Continuous
 62
     7
100
AcDbLine
 10
-93.340218515977
 20
118.9894700125518
 30
0.0
 11
-92.800889350797
 21
120.1708508349517
 31
0.0
  0
LINE
  5
44E
330
2
100
AcDbEntity
  8
0
  6
Continuous
 62
     7
100
AcDbLine
 10
-92.740667431617
 20
120.0729471191517
 30
0.0
 11
-93.340218515977
 21
118.7596523797318
 31
0.0
  0
LINE
  5
44F
330
2
100
AcDbEntity
  8
0
  6
Continuous
 62
     7
100
AcDbLine
 10
-92.87379206249699
 20
118.7596523797318
 30
0.0
 11
-92.27424097813701
 21
120.0729471191517
 31
0.0
  0
LINE
  5
450
330
2
100
AcDbEntity
  8
0
  6
Continuous
 62
     7
100
AcDbLine
 10
-93.335165409497
 20
124.4714547889717
 30
0.0
 11
-93.83731231223698
 21
123.7784286337518
 31
0.0
  0
LINE
  5
451
330
2
100
AcDbEntity
  8
0
  6
Continuous
 62
     7
100
AcDbLine
 10
-91.71719207191699
 20
123.7784286337518
 30
0.0
 11
-91.21504516917699
 21
124.4714547889717
 31
0.0
  0
LINE
  5
452
330
2
100
AcDbEntity
  8
0
  6
Continuous
 62
     7
100
AcDbLine
 10
-92.13174997787699
 20
117.4226150258718
 30
0.0
 11
-92.11584353521699
 21
117.3726150242717
 31
0.0
  0
LINE
  5
453
330
2
100
AcDbEntity
  8
0
  6
Continuous
 62
     7
100
AcDbLine
 10
-89.289255383477
 20
123.7784286337518
 30
0.0
 11
-89.289255383477
 21
117.4226150258718
 31
0.0
  0
LINE
  5
454
330
2
100
AcDbEntity
  8
0
  6
Continuous
 62
     7
100
AcDbLine
 10
-88.919588294517
 20
117.4226150258718
 30
0.0
 11
-88.919588294517
 21
125.7726232661317
 31
0.0
  0
LINE
  5
455
330
2
100
AcDbEntity
  8
0
  6
Continuous
 62
     7
100
AcDbLine
 10
-88.712893191017
 20
117.2726150236117
 30
0.0
 11
-88.712893191017
 21
125.7726232661317
 31
0.0
  0
LINE
  5
456
330
2
100
AcDbEntity
  8
0
  6
Continuous
 62
     7
100
AcDbLine
 10
-86.84718737963699
 20
117.2726150236117
 30
0.0
 11
-86.84718737963699
 21
125.7726232661317
 31
0.0
  0
LINE
  5
457
330
2
100
AcDbEntity
  8
0
  6
Continuous
 62
     7
100
AcDbLine
 10
-86.79946805419699
 20
117.4226150258718
 30
0.0
 11
-86.79946805419699
 21
125.7726232661317
 31
0.0
  0
LINE
  5
458
330
2
100
AcDbEntity
  8
0
  6
Continuous
 62
     7
100
AcDbLine
 10
-89.27334894335698
 20
117.3726150242717
 30
0.0
 11
-89.289255383477
 21
117.4226150258718
 31
0.0
  0
LINE
  5
459
330
2
100
AcDbEntity
  8
0
  6
Continuous
 62
     7
100
AcDbLine
 10
-86.84718737963699
 20
117.2726150236117
 30
0.0
 11
-86.79946805419699
 21
117.4226150258718
 31
0.0
  0
LINE
  5
45A
330
2
100
AcDbEntity
  8
0
  6
Continuous
 62
     7
100
AcDbLine
 10
-94.08226059805699
 20
117.4226150258718
 30
0.0
 11
-94.151158966737
 21
117.3726150242717
 31
0.0
  0
LINE
  5
45B
330
2
100
AcDbEntity
  8
0
  6
Continuous
 62
     7
100
AcDbLine
 10
-71.906608264157
 20
102.6726232660717
 30
0.0
 11
-64.40660826291699
 21
102.6726232660717
 31
0.0
  0
LINE
  5
45C
330
2
100
AcDbEntity
  8
0
  6
Continuous
 62
     7
100
AcDbLine
 10
-94.151158966737
 20
117.3726150242717
 30
0.0
 11
-94.220057335417
 21
117.4226150258718
 31
0.0
  0
LINE
  5
45D
330
2
100
AcDbEntity
  8
0
  6
Continuous
 62
     7
100
AcDbLine
 10
-92.253640272577
 20
117.2726150236117
 30
0.0
 11
-92.11584353521699
 21
117.3726150242717
 31
0.0
  0
LINE
  5
45E
330
2
100
AcDbEntity
  8
0
  6
Continuous
 62
     7
100
AcDbLine
 10
-89.13555220599699
 20
117.2726150236117
 30
0.0
 11
-89.27334894335698
 21
117.3726150242717
 31
0.0
  0
LINE
  5
45F
330
2
100
AcDbEntity
  8
0
  6
Continuous
 62
     7
100
AcDbLine
 10
-88.712893191017
 20
117.2726150236117
 30
0.0
 11
-88.919588294517
 21
117.4226150258718
 31
0.0
  0
LINE
  5
460
330
2
100
AcDbEntity
  8
0
  6
Continuous
 62
     7
100
AcDbLine
 10
-89.672000406657
 20
123.7784286337518
 30
0.0
 11
-90.174147309397
 21
124.4714547889717
 31
0.0
  0
LINE
  5
461
330
2
100
AcDbEntity
  8
0
  6
Continuous
 62
     7
100
AcDbLine
 10
-45.15660826413699
 20
105.9726232649918
 30
0.0
 11
-64.40660826291699
 21
105.9726232649918
 31
0.0
  0
LINE
  5
462
330
2
100
AcDbEntity
  8
0
  6
Continuous
 62
     7
100
AcDbLine
 10
-71.906608264157
 20
105.9726232649918
 30
0.0
 11
-91.156608262937
 21
105.9726232649918
 31
0.0
  0
LINE
  5
463
330
2
100
AcDbEntity
  8
0
  6
Continuous
 62
     7
100
AcDbLine
 10
-78.15660826349699
 20
111.9726232664917
 30
0.0
 11
-78.15662082887699
 21
126.7726232651117
 31
0.0
  0
LINE
  5
464
330
2
100
AcDbEntity
  8
0
  6
Continuous
 62
     7
100
AcDbLine
 10
-45.15660826413699
 20
111.9726232664917
 30
0.0
 11
-58.15660826357699
 21
111.9726232664917
 31
0.0
  0
LINE
  5
465
330
2
100
AcDbEntity
  8
0
  6
Continuous
 62
     7
100
AcDbLine
 10
-78.15660826349699
 20
111.9726232664917
 30
0.0
 11
-91.156608262937
 21
111.9726232664917
 31
0.0
  0
LINE
  5
466
330
2
100
AcDbEntity
  8
0
  6
Continuous
 62
     7
100
AcDbLine
 10
-72.631608264497
 20
126.7726232651117
 30
0.0
 11
-72.631608264497
 21
133.2726232648317
 31
0.0
  0
LINE
  5
467
330
2
100
AcDbEntity
  8
0
  6
Continuous
 62
     7
100
AcDbLine
 10
-71.906608264157
 20
105.9726232649918
 30
0.0
 11
-71.906608264157
 21
102.6726232660717
 31
0.0
  0
LINE
  5
468
330
2
100
AcDbEntity
  8
0
  6
Continuous
 62
     7
100
AcDbLine
 10
-71.43160826419699
 20
133.2726232648317
 30
0.0
 11
-71.43160826419699
 21
126.7726232651117
 31
0.0
  0
LINE
  5
469
330
2
100
AcDbEntity
  8
0
  6
Continuous
 62
     7
100
AcDbLine
 10
-92.253640272577
 20
117.2726150236117
 30
0.0
 11
-94.542005098937
 21
117.2726150236117
 31
0.0
  0
LINE
  5
46A
330
2
100
AcDbEntity
  8
0
  6
Continuous
 62
     7
100
AcDbLine
 10
-89.13555220599699
 20
117.2726150236117
 30
0.0
 11
-86.84718737963699
 21
117.2726150236117
 31
0.0
  0
LINE
  5
46B
330
2
100
AcDbEntity
  8
0
  6
Continuous
 62
     7
100
AcDbLine
 10
-49.46602914743699
 20
117.2726150236117
 30
0.0
 11
-47.17766432107699
 21
117.2726150236117
 31
0.0
  0
LINE
  5
46C
330
2
100
AcDbEntity
  8
0
  6
Continuous
 62
     7
100
AcDbLine
 10
-44.059576254497
 20
117.2726150236117
 30
0.0
 11
-41.77121142813699
 21
117.2726150236117
 31
0.0
  0
LINE
  5
46D
330
2
100
AcDbEntity
  8
0
  6
Continuous
 62
     7
100
AcDbLine
 10
-47.02396114359699
 20
117.4226150258718
 30
0.0
 11
-47.39362823001699
 21
117.4226150258718
 31
0.0
  0
LINE
  5
46E
330
2
100
AcDbEntity
  8
0
  6
Continuous
 62
     7
100
AcDbLine
 10
-92.13174997787699
 20
117.4226150258718
 30
0.0
 11
-94.08226059805699
 21
117.4226150258718
 31
0.0
  0
LINE
  5
46F
330
2
100
AcDbEntity
  8
0
  6
Continuous
 62
     7
100
AcDbLine
 10
-94.220057335417
 20
117.4226150258718
 30
0.0
 11
-94.58972442183698
 21
117.4226150258718
 31
0.0
  0
LINE
  5
470
330
2
100
AcDbEntity
  8
0
  6
Continuous
 62
     7
100
AcDbLine
 10
-89.289255383477
 20
117.4226150258718
 30
0.0
 11
-88.919588294517
 21
117.4226150258718
 31
0.0
  0
LINE
  5
471
330
2
100
AcDbEntity
  8
0
  6
Continuous
 62
     7
100
AcDbLine
 10
-44.18146654919698
 20
117.4226150258718
 30
0.0
 11
-42.23095592647699
 21
117.4226150258718
 31
0.0
  0
LINE
  5
472
330
2
100
AcDbEntity
  8
0
  6
Continuous
 62
     7
100
AcDbLine
 10
-42.09315919165699
 20
117.4226150258718
 30
0.0
 11
-41.72349210269699
 21
117.4226150258718
 31
0.0
  0
LINE
  5
473
330
2
100
AcDbEntity
  8
0
  6
Continuous
 62
     7
100
AcDbLine
 10
-92.87379206249699
 20
118.7596523797318
 30
0.0
 11
-93.34021851343699
 21
118.7596523797318
 31
0.0
  0
LINE
  5
474
330
2
100
AcDbEntity
  8
0
  6
Continuous
 62
     7
100
AcDbLine
 10
-43.43942446457698
 20
118.7596523797318
 30
0.0
 11
-42.97299801109699
 21
118.7596523797318
 31
0.0
  0
LINE
  5
475
330
2
100
AcDbEntity
  8
0
  6
Continuous
 62
     7
100
AcDbLine
 10
-43.57254909545699
 20
120.0729471191517
 30
0.0
 11
-44.03897554893698
 21
120.0729471191517
 31
0.0
  0
LINE
  5
476
330
2
100
AcDbEntity
  8
0
  6
Continuous
 62
     7
100
AcDbLine
 10
-92.27424097813701
 20
120.0729471191517
 30
0.0
 11
-92.740667431617
 21
120.0729471191517
 31
0.0
  0
LINE
  5
477
330
2
100
AcDbEntity
  8
0
  6
Continuous
 62
     7
100
AcDbLine
 10
-64.881608262877
 20
126.7726232651117
 30
0.0
 11
-64.881608262877
 21
133.2726232648317
 31
0.0
  0
LINE
  5
478
330
2
100
AcDbEntity
  8
0
  6
Continuous
 62
     7
100
AcDbLine
 10
-64.40660826291699
 20
102.6726232660717
 30
0.0
 11
-64.40660826291699
 21
105.9726232649918
 31
0.0
  0
LINE
  5
479
330
2
100
AcDbEntity
  8
0
  6
Continuous
 62
     7
100
AcDbLine
 10
-93.03294095933699
 20
121.3741155963117
 30
0.0
 11
-92.56651450839699
 21
121.3741155963117
 31
0.0
  0
LINE
  5
47A
330
2
100
AcDbEntity
  8
0
  6
Continuous
 62
     7
100
AcDbLine
 10
-43.746702018677
 20
121.3741155963117
 30
0.0
 11
-43.28027556519699
 21
121.3741155963117
 31
0.0
  0
LINE
  5
47B
330
2
100
AcDbEntity
  8
0
  6
Continuous
 62
     7
100
AcDbLine
 10
-93.112428849637
 20
121.9681297930918
 30
0.0
 11
-92.56651450839699
 21
121.9681297930918
 31
0.0
  0
LINE
  5
47C
330
2
100
AcDbEntity
  8
0
  6
Continuous
 62
     7
100
AcDbLine
 10
-43.746702018677
 20
121.9681297930918
 30
0.0
 11
-43.20078767743699
 21
121.9681297930918
 31
0.0
  0
LINE
  5
47D
330
2
100
AcDbEntity
  8
0
  6
Continuous
 62
     7
100
AcDbLine
 10
-63.681608262577
 20
133.2726232648317
 30
0.0
 11
-63.681608262577
 21
126.7726232651117
 31
0.0
  0
LINE
  5
47E
330
2
100
AcDbEntity
  8
0
  6
Continuous
 62
     7
100
AcDbLine
 10
-46.64121612041698
 20
123.7784286337518
 30
0.0
 11
-47.02396114359699
 21
123.7784286337518
 31
0.0
  0
LINE
  5
47F
330
2
100
AcDbEntity
  8
0
  6
Continuous
 62
     7
100
AcDbLine
 10
-91.71719207191699
 20
123.7784286337518
 30
0.0
 11
-94.220057335417
 21
123.7784286337518
 31
0.0
  0
LINE
  5
480
330
2
100
AcDbEntity
  8
0
  6
Continuous
 62
     7
100
AcDbLine
 10
-89.672000406657
 20
123.7784286337518
 30
0.0
 11
-89.289255383477
 21
123.7784286337518
 31
0.0
  0
LINE
  5
481
330
2
100
AcDbEntity
  8
0
  6
Continuous
 62
     7
100
AcDbLine
 10
-44.59602445515701
 20
123.7784286337518
 30
0.0
 11
-42.09315919165699
 21
123.7784286337518
 31
0.0
  0
LINE
  5
482
330
2
100
AcDbEntity
  8
0
  6
Continuous
 62
     7
100
AcDbLine
 10
-93.335165409497
 20
124.4714547889717
 30
0.0
 11
-90.174147309397
 21
124.4714547889717
 31
0.0
  0
LINE
  5
483
330
2
100
AcDbEntity
  8
0
  6
Continuous
 62
     7
100
AcDbLine
 10
-46.139069215137
 20
124.4714547889717
 30
0.0
 11
-42.97805111757701
 21
124.4714547889717
 31
0.0
  0
LINE
  5
484
330
2
100
AcDbEntity
  8
0
  6
Continuous
 62
     7
100
AcDbLine
 10
-95.15660826393698
 20
125.7726232661317
 30
0.0
 11
-41.15660826313699
 21
125.7726232661317
 31
0.0
  0
LINE
  5
485
330
2
100
AcDbEntity
  8
0
  6
Continuous
 62
     7
100
AcDbLine
 10
-58.15660826357699
 20
111.9726232664917
 30
0.0
 11
-58.156581580877
 21
126.7726232651117
 31
0.0
  0
LINE
  5
486
102
{ACAD_REACTORS
330
643
102
}
330
2
100
AcDbEntity
  8
0
  6
Continuous
 62
     7
100
AcDbLine
 10
-95.15660826393698
 20
126.7726232651117
 30
0.0
 11
-41.15660826313699
 21
126.7726232651117
 31
0.0
  0
LINE
  5
487
330
2
100
AcDbEntity
  8
0
  6
Continuous
 62
     7
100
AcDbLine
 10
-47.60032333605699
 20
117.2726150236117
 30
0.0
 11
-47.39362823001699
 21
117.4226150258718
 31
0.0
  0
LINE
  5
488
330
2
100
AcDbEntity
  8
0
  6
Continuous
 62
     7
100
AcDbLine
 10
-46.139069215137
 20
124.4714547889717
 30
0.0
 11
-46.64121612041698
 21
123.7784286337518
 31
0.0
  0
LINE
  5
489
330
2
100
AcDbEntity
  8
0
  6
Continuous
 62
     7
100
AcDbLine
 10
-47.17766432107699
 20
117.2726150236117
 30
0.0
 11
-47.03986758371698
 21
117.3726150242717
 31
0.0
  0
LINE
  5
48A
330
2
100
AcDbEntity
  8
0
  6
Continuous
 62
     7
100
AcDbLine
 10
-44.059576254497
 20
117.2726150236117
 30
0.0
 11
-44.19737298931699
 21
117.3726150242717
 31
0.0
  0
LINE
  5
48B
330
2
100
AcDbEntity
  8
0
  6
Continuous
 62
     7
100
AcDbLine
 10
-42.162057560337
 20
117.3726150242717
 30
0.0
 11
-42.09315919165699
 21
117.4226150258718
 31
0.0
  0
LINE
  5
48C
330
2
100
AcDbEntity
  8
0
  6
Continuous
 62
     7
100
AcDbLine
 10
-63.681608262577
 20
133.2726232648317
 30
0.0
 11
-72.631608264497
 21
133.2726232648317
 31
0.0
  0
LINE
  5
48D
330
2
100
AcDbEntity
  8
0
  6
Continuous
 62
     7
100
AcDbLine
 10
-42.23095592647699
 20
117.4226150258718
 30
0.0
 11
-42.162057560337
 21
117.3726150242717
 31
0.0
  0
LINE
  5
48E
330
2
100
AcDbEntity
  8
0
  6
Continuous
 62
     7
100
AcDbLine
 10
-49.51374847033699
 20
117.4226150258718
 30
0.0
 11
-49.51374847033699
 21
125.7726232661317
 31
0.0
  0
LINE
  5
48F
330
2
100
AcDbEntity
  8
0
  6
Continuous
 62
     7
100
AcDbLine
 10
-49.46602914743699
 20
117.2726150236117
 30
0.0
 11
-49.46602914743699
 21
125.7726232661317
 31
0.0
  0
LINE
  5
490
330
2
100
AcDbEntity
  8
0
  6
Continuous
 62
     7
100
AcDbLine
 10
-49.46602914743699
 20
117.2726150236117
 30
0.0
 11
-49.51374847033699
 21
117.4226150258718
 31
0.0
  0
LINE
  5
491
330
2
100
AcDbEntity
  8
0
  6
Continuous
 62
     7
100
AcDbLine
 10
-47.60032333605699
 20
117.2726150236117
 30
0.0
 11
-47.60032333605699
 21
125.7726232661317
 31
0.0
  0
LINE
  5
492
330
2
100
AcDbEntity
  8
0
  6
Continuous
 62
     7
100
AcDbLine
 10
-47.39362823001699
 20
117.4226150258718
 30
0.0
 11
-47.39362823001699
 21
125.7726232661317
 31
0.0
  0
LINE
  5
493
330
2
100
AcDbEntity
  8
0
  6
Continuous
 62
     7
100
AcDbLine
 10
-47.03986758371698
 20
117.3726150242717
 30
0.0
 11
-47.02396114359699
 21
117.4226150258718
 31
0.0
  0
LINE
  5
494
330
2
100
AcDbEntity
  8
0
  6
Continuous
 62
     7
100
AcDbLine
 10
-47.02396114359699
 20
123.7784286337518
 30
0.0
 11
-47.02396114359699
 21
117.4226150258718
 31
0.0
  0
LINE
  5
495
330
2
100
AcDbEntity
  8
0
  6
Continuous
 62
     7
100
AcDbLine
 10
-45.404603892097
 20
125.7726232661317
 30
0.0
 11
-45.404603892097
 21
124.4714547889717
 31
0.0
  0
LINE
  5
496
330
2
100
AcDbEntity
  8
0
  6
Continuous
 62
     7
100
AcDbLine
 10
-45.15660826413699
 20
105.9726232649918
 30
0.0
 11
-45.15660826413699
 21
111.9726232664917
 31
0.0
  0
LINE
  5
497
330
2
100
AcDbEntity
  8
0
  6
Continuous
 62
     7
100
AcDbLine
 10
-44.18146654919698
 20
117.4226150258718
 30
0.0
 11
-44.19737298931699
 21
117.3726150242717
 31
0.0
  0
LINE
  5
498
330
2
100
AcDbEntity
  8
0
  6
Continuous
 62
     7
100
AcDbLine
 10
-45.09817135789698
 20
124.4714547889717
 30
0.0
 11
-44.59602445515701
 21
123.7784286337518
 31
0.0
  0
LINE
  5
499
330
2
100
AcDbEntity
  8
0
  6
Continuous
 62
     7
100
AcDbLine
 10
-44.03897554893698
 20
120.0729471191517
 30
0.0
 11
-43.43942446457698
 21
118.7596523797318
 31
0.0
  0
LINE
  5
49A
330
2
100
AcDbEntity
  8
0
  6
Continuous
 62
     7
100
AcDbLine
 10
-44.19737298931699
 20
117.3726150242717
 30
0.0
 11
-44.213279431977
 21
117.4226150258718
 31
0.0
  0
LINE
  5
49B
330
2
100
AcDbEntity
  8
0
  6
Continuous
 62
     7
100
AcDbLine
 10
-44.213279431977
 20
123.7784286337518
 30
0.0
 11
-44.213279431977
 21
117.4226150258718
 31
0.0
  0
LINE
  5
49C
330
2
100
AcDbEntity
  8
0
  6
Continuous
 62
     7
100
AcDbLine
 10
-44.18146654919698
 20
123.7784286337518
 30
0.0
 11
-44.18146654919698
 21
117.4226150258718
 31
0.0
  0
LINE
  5
49D
330
2
100
AcDbEntity
  8
0
  6
Continuous
 62
     7
100
AcDbLine
 10
-43.746702018677
 20
121.9681297930918
 30
0.0
 11
-43.746702018677
 21
121.3741155963117
 31
0.0
  0
LINE
  5
49E
330
2
100
AcDbEntity
  8
0
  6
Continuous
 62
     7
100
AcDbLine
 10
-43.712516443157
 20
125.7726232661317
 30
0.0
 11
-43.712516443157
 21
124.4714547889717
 31
0.0
  0
LINE
  5
49F
330
2
100
AcDbEntity
  8
0
  6
Continuous
 62
     7
100
AcDbLine
 10
-43.28027556519699
 20
121.9681297930918
 30
0.0
 11
-43.28027556519699
 21
121.3741155963117
 31
0.0
  0
LINE
  5
4A0
330
2
100
AcDbEntity
  8
0
  6
Continuous
 62
     7
100
AcDbLine
 10
-43.20078767743699
 20
121.3741155963117
 30
0.0
 11
-43.20078767743699
 21
121.9681297930918
 31
0.0
  0
LINE
  5
4A1
330
2
100
AcDbEntity
  8
0
  6
Continuous
 62
     7
100
AcDbLine
 10
-42.19387044311699
 20
117.2726150236117
 30
0.0
 11
-42.162057560337
 21
117.3726150242717
 31
0.0
  0
LINE
  5
4A2
330
2
100
AcDbEntity
  8
0
  6
Continuous
 62
     7
100
AcDbLine
 10
-42.475904214837
 20
123.7784286337518
 30
0.0
 11
-42.97805111757701
 21
124.4714547889717
 31
0.0
  0
LINE
  5
4A3
330
2
100
AcDbEntity
  8
0
  6
Continuous
 62
     7
100
AcDbLine
 10
-42.97299801109699
 20
118.7596523797318
 30
0.0
 11
-43.57254909545699
 21
120.0729471191517
 31
0.0
  0
LINE
  5
4A4
330
2
100
AcDbEntity
  8
0
  6
Continuous
 62
     7
100
AcDbLine
 10
-43.512327173737
 20
120.1708508349517
 30
0.0
 11
-42.97299801109699
 21
118.9894700125518
 31
0.0
  0
LINE
  5
4A5
330
2
100
AcDbEntity
  8
0
  6
Continuous
 62
     7
100
AcDbLine
 10
-42.97299801109699
 20
118.7596523797318
 30
0.0
 11
-42.97299801109699
 21
118.9894700125518
 31
0.0
  0
LINE
  5
4A6
330
2
100
AcDbEntity
  8
0
  6
Continuous
 62
     7
100
AcDbLine
 10
-42.23095592647699
 20
123.7784286337518
 30
0.0
 11
-42.23095592647699
 21
117.4226150258718
 31
0.0
  0
LINE
  5
4A7
330
2
100
AcDbEntity
  8
0
  6
Continuous
 62
     7
100
AcDbLine
 10
-42.09315919165699
 20
123.7784286337518
 30
0.0
 11
-42.09315919165699
 21
117.4226150258718
 31
0.0
  0
LINE
  5
4A8
330
2
100
AcDbEntity
  8
0
  6
Continuous
 62
     7
100
AcDbLine
 10
-41.72349210269699
 20
117.4226150258718
 30
0.0
 11
-41.72349210269699
 21
125.7726232661317
 31
0.0
  0
LINE
  5
4A9
102
{ACAD_REACTORS
330
643
330
653
102
}
330
2
100
AcDbEntity
  8
0
  6
Continuous
 62
     7
100
AcDbLine
 10
-41.15660826313699
 20
126.7726232651117
 30
0.0
 11
-41.15660826313699
 21
125.7726232661317
 31
0.0
  0
LINE
  5
4AA
330
2
100
AcDbEntity
  8
0
  6
Continuous
 62
     7
100
AcDbLine
 10
-41.77121142813699
 20
117.2726150236117
 30
0.0
 11
-41.72349210269699
 21
117.4226150258718
 31
0.0
  0
LINE
  5
4AB
330
2
100
AcDbEntity
  8
0
  6
Continuous
 62
     7
100
AcDbLine
 10
-95.15660826393698
 20
-48.23349475090822
 30
0.0
 11
-95.15660826393698
 21
-53.20505871428821
 31
0.0
  0
LINE
  5
4AC
330
2
100
AcDbEntity
  8
0
  6
Continuous
 62
     7
100
AcDbLine
 10
-93.63641269371699
 20
-51.93211087410822
 30
0.0
 11
-93.216157608397
 21
-52.60465959758822
 31
0.0
  0
LINE
  5
4AD
330
2
100
AcDbEntity
  8
0
  6
Continuous
 62
     7
100
AcDbLine
 10
-90.377959919297
 20
-57.14672535722822
 30
0.0
 11
-89.957704836517
 21
-57.81927408070822
 31
0.0
  0
LINE
  5
4AE
330
2
100
AcDbEntity
  8
0
  6
Continuous
 62
     7
100
AcDbLine
 10
-93.59401028931699
 20
-51.90561490982823
 30
0.0
 11
-93.17375520399698
 21
-52.57816363330822
 31
0.0
  0
LINE
  5
4AF
330
2
100
AcDbEntity
  8
0
  6
Continuous
 62
     7
100
AcDbLine
 10
-88.91958829705698
 20
-59.38625382710823
 30
0.0
 11
-89.14932606973698
 21
-59.01859653600823
 31
0.0
  0
LINE
  5
4B0
330
2
100
AcDbEntity
  8
0
  6
Continuous
 62
     7
100
AcDbLine
 10
-89.91530242957699
 20
-57.79277811642821
 30
0.0
 11
-90.33555751489698
 21
-57.12022939294822
 31
0.0
  0
LINE
  5
4B1
330
2
100
AcDbEntity
  8
0
  6
Continuous
 62
     7
100
AcDbLine
 10
-89.80023269527698
 20
-56.84468024122821
 30
0.0
 11
-89.432969535977
 21
-57.43242415336823
 31
0.0
  0
LINE
  5
4B2
330
2
100
AcDbEntity
  8
0
  6
Continuous
 62
     7
100
AcDbLine
 10
-92.691422307857
 20
-52.21780967024821
 30
0.0
 11
-93.05868546715698
 21
-51.63006575556822
 31
0.0
  0
LINE
  5
4B3
330
2
100
AcDbEntity
  8
0
  6
Continuous
 62
     7
100
AcDbLine
 10
-89.364071167297
 20
-57.44833059602822
 30
0.0
 11
-89.78432625261699
 21
-56.77578187254822
 31
0.0
  0
LINE
  5
4B4
330
2
100
AcDbEntity
  8
0
  6
Continuous
 62
     7
100
AcDbLine
 10
-92.62252394171699
 20
-52.23371611290822
 30
0.0
 11
-93.04277902703701
 21
-51.56116738942822
 31
0.0
  0
LINE
  5
4B5
330
2
100
AcDbEntity
  8
0
  6
Continuous
 62
     7
100
AcDbLine
 10
-93.300357178377
 20
-50.77154019550821
 30
0.0
 11
-93.172406118557
 21
-50.97630469326822
 31
0.0
  0
LINE
  5
4B6
330
2
100
AcDbEntity
  8
0
  6
Continuous
 62
     7
100
AcDbLine
 10
-92.25858380345698
 20
-52.43872609912823
 30
0.0
 11
-92.07070812891698
 21
-52.73939002408822
 31
0.0
  0
LINE
  5
4B7
330
2
100
AcDbEntity
  8
0
  6
Continuous
 62
     7
100
AcDbLine
 10
-89.99692282513699
 20
-56.05814025474822
 30
0.0
 11
-89.809047153137
 21
-56.35880417970821
 31
0.0
  0
LINE
  5
4B8
330
2
100
AcDbEntity
  8
0
  6
Continuous
 62
     7
100
AcDbLine
 10
-88.895224838037
 20
-57.82122558302822
 30
0.0
 11
-88.76727377821699
 21
-58.02599008332823
 31
0.0
  0
LINE
  5
4B9
330
2
100
AcDbEntity
  8
0
  6
Continuous
 62
     7
100
AcDbLine
 10
-93.23145880969699
 20
-50.78744663816822
 30
0.0
 11
-93.15649967589699
 21
-50.90740632712822
 31
0.0
  0
LINE
  5
4BA
330
2
100
AcDbEntity
  8
0
  6
Continuous
 62
     7
100
AcDbLine
 10
-92.189685434777
 20
-52.45463254178822
 30
0.0
 11
-92.054801688797
 21
-52.67049165540822
 31
0.0
  0
LINE
  5
4BB
330
2
100
AcDbEntity
  8
0
  6
Continuous
 62
     7
100
AcDbLine
 10
-88.75136733555699
 20
-57.95709171464822
 30
0.0
 11
-88.826326469357
 21
-57.83713202568821
 31
0.0
  0
LINE
  5
4BC
330
2
100
AcDbEntity
  8
0
  6
Continuous
 62
     7
100
AcDbLine
 10
-89.79314071047699
 20
-56.28990581102822
 30
0.0
 11
-89.92802445645699
 21
-56.07404669486823
 31
0.0
  0
LINE
  5
4BD
330
2
100
AcDbEntity
  8
0
  6
Continuous
 62
     7
100
AcDbLine
 10
-89.33439078977698
 20
-55.70310321018822
 30
0.0
 11
-89.19950704379699
 21
-55.91896232634822
 31
0.0
  0
LINE
  5
4BE
330
2
100
AcDbEntity
  8
0
  6
Continuous
 62
     7
100
AcDbLine
 10
-88.232692802677
 20
-57.46618854100822
 30
0.0
 11
-88.157733668877
 21
-57.58614822996822
 31
0.0
  0
LINE
  5
4BF
330
2
100
AcDbEntity
  8
0
  6
Continuous
 62
     7
100
AcDbLine
 10
-91.46116802211698
 20
-52.29954817072822
 30
0.0
 11
-91.596051768097
 21
-52.08368905456822
 31
0.0
  0
LINE
  5
4C0
330
2
100
AcDbEntity
  8
0
  6
Continuous
 62
     7
100
AcDbLine
 10
-92.56286600921699
 20
-50.53646284244821
 30
0.0
 11
-92.637825143017
 21
-50.41650315094823
 31
0.0
  0
LINE
  5
4C1
330
2
100
AcDbEntity
  8
0
  6
Continuous
 62
     7
100
AcDbLine
 10
-88.08883530019699
 20
-57.60205467008822
 30
0.0
 11
-88.21678636001699
 21
-57.39729017232821
 31
0.0
  0
LINE
  5
4C2
330
2
100
AcDbEntity
  8
0
  6
Continuous
 62
     7
100
AcDbLine
 10
-89.13060867511699
 20
-55.93486876646821
 30
0.0
 11
-89.31848434711699
 21
-55.63420484150822
 31
0.0
  0
LINE
  5
4C3
330
2
100
AcDbEntity
  8
0
  6
Continuous
 62
     7
100
AcDbLine
 10
-91.39226965343699
 20
-52.31545461338822
 30
0.0
 11
-91.58014532543701
 21
-52.01479068842822
 31
0.0
  0
LINE
  5
4C4
330
2
100
AcDbEntity
  8
0
  6
Continuous
 62
     7
100
AcDbLine
 10
-92.49396764053699
 20
-50.55236928256822
 30
0.0
 11
-92.62191870035698
 21
-50.34760478480823
 31
0.0
  0
LINE
  5
4C5
330
2
100
AcDbEntity
  8
0
  6
Continuous
 62
     7
100
AcDbLine
 10
-92.02512131127699
 20
-50.92526427210822
 30
0.0
 11
-91.604866225957
 21
-51.59781299558822
 31
0.0
  0
LINE
  5
4C6
330
2
100
AcDbEntity
  8
0
  6
Continuous
 62
     7
100
AcDbLine
 10
-88.766668536857
 20
-56.13987875522822
 30
0.0
 11
-88.34641345153698
 21
-56.81242747870822
 31
0.0
  0
LINE
  5
4C7
330
2
100
AcDbEntity
  8
0
  6
Continuous
 62
     7
100
AcDbLine
 10
-91.95622294259699
 20
-50.94117071222822
 30
0.0
 11
-91.58895978329699
 21
-51.52891462690823
 31
0.0
  0
LINE
  5
4C8
330
2
100
AcDbEntity
  8
0
  6
Continuous
 62
     7
100
AcDbLine
 10
-88.33050701141699
 20
-56.74352911002822
 30
0.0
 11
-88.69777017071699
 21
-56.15578519534823
 31
0.0
  0
LINE
  5
4C9
330
2
100
AcDbEntity
  8
0
  6
Continuous
 62
     7
100
AcDbLine
 10
-87.795182189257
 20
-56.46797995576823
 30
0.0
 11
-88.21543727457699
 21
-55.79543123228822
 31
0.0
  0
LINE
  5
4CA
330
2
100
AcDbEntity
  8
0
  6
Continuous
 62
     7
100
AcDbLine
 10
-91.05363496367699
 20
-51.25336547264822
 30
0.0
 11
-91.47389004899698
 21
-50.58081674916822
 31
0.0
  0
LINE
  5
4CB
330
2
100
AcDbEntity
  8
0
  6
Continuous
 62
     7
100
AcDbLine
 10
-87.752779784857
 20
-56.44148399402822
 30
0.0
 11
-88.17303487017699
 21
-55.76893527054822
 31
0.0
  0
LINE
  5
4CC
330
2
100
AcDbEntity
  8
0
  6
Continuous
 62
     7
100
AcDbLine
 10
-91.01123255927699
 20
-51.22686951090821
 30
0.0
 11
-91.43148764205699
 21
-50.55432078742822
 31
0.0
  0
LINE
  5
4CD
330
2
100
AcDbEntity
  8
0
  6
Continuous
 62
     7
100
AcDbLine
 10
-47.39362823001699
 20
-59.38625382710823
 30
0.0
 11
-47.60032333605699
 21
-59.43397315254822
 31
0.0
  0
LINE
  5
4CE
330
2
100
AcDbEntity
  8
0
  6
Continuous
 62
     7
100
AcDbLine
 10
-88.712893191017
 20
-59.43397315254822
 30
0.0
 11
-88.91958829705698
 21
-59.38625382710823
 31
0.0
  0
LINE
  5
4CF
330
2
100
AcDbEntity
  8
0
  6
Continuous
 62
     7
100
AcDbLine
 10
-92.62191870035698
 20
-50.34760478480823
 30
0.0
 11
-93.300357178377
 21
-50.77154019550821
 31
0.0
  0
LINE
  5
4D0
330
2
100
AcDbEntity
  8
0
  6
Continuous
 62
     7
100
AcDbLine
 10
-92.637825143017
 20
-50.41650315094823
 30
0.0
 11
-93.23145880969699
 21
-50.78744663816822
 31
0.0
  0
LINE
  5
4D1
330
2
100
AcDbEntity
  8
0
  6
Continuous
 62
     7
100
AcDbLine
 10
-93.15649967589699
 20
-50.90740632712822
 30
0.0
 11
-92.56286600921699
 21
-50.53646284244821
 31
0.0
  0
LINE
  5
4D2
330
2
100
AcDbEntity
  8
0
  6
Continuous
 62
     7
100
AcDbLine
 10
-93.172406118557
 20
-50.97630469326822
 30
0.0
 11
-92.49396764053699
 21
-50.55236928256822
 31
0.0
  0
LINE
  5
4D3
330
2
100
AcDbEntity
  8
0
  6
Continuous
 62
     7
100
AcDbLine
 10
-91.43148764205699
 20
-50.55432078742822
 30
0.0
 11
-92.02512131127699
 21
-50.92526427210822
 31
0.0
  0
LINE
  5
4D4
330
2
100
AcDbEntity
  8
0
  6
Continuous
 62
     7
100
AcDbLine
 10
-93.04277902703701
 20
-51.56116738942822
 30
0.0
 11
-93.63641269371699
 21
-51.93211087410822
 31
0.0
  0
LINE
  5
4D5
330
2
100
AcDbEntity
  8
0
  6
Continuous
 62
     7
100
AcDbLine
 10
-91.44739408471698
 20
-50.62321915356823
 30
0.0
 11
-91.95622294259699
 21
-50.94117071222822
 31
0.0
  0
LINE
  5
4D6
330
2
100
AcDbEntity
  8
0
  6
Continuous
 62
     7
100
AcDbLine
 10
-93.05868546715698
 20
-51.63006575556822
 30
0.0
 11
-93.56751432503699
 21
-51.9480173142282
 31
0.0
  0
LINE
  5
4D7
330
2
100
AcDbEntity
  8
0
  6
Continuous
 62
     7
100
AcDbLine
 10
-93.20025116573701
 20
-52.53576122890823
 30
0.0
 11
-92.691422307857
 21
-52.21780967024821
 31
0.0
  0
LINE
  5
4D8
330
2
100
AcDbEntity
  8
0
  6
Continuous
 62
     7
100
AcDbLine
 10
-91.58895978329699
 20
-51.52891462690823
 30
0.0
 11
-91.080130925417
 21
-51.21096306824822
 31
0.0
  0
LINE
  5
4D9
330
2
100
AcDbEntity
  8
0
  6
Continuous
 62
     7
100
AcDbLine
 10
-93.216157608397
 20
-52.60465959758822
 30
0.0
 11
-92.62252394171699
 21
-52.23371611290822
 31
0.0
  0
LINE
  5
4DA
330
2
100
AcDbEntity
  8
0
  6
Continuous
 62
     7
100
AcDbLine
 10
-91.604866225957
 20
-51.59781299558822
 30
0.0
 11
-91.01123255927699
 21
-51.22686951090821
 31
0.0
  0
LINE
  5
4DB
330
2
100
AcDbEntity
  8
0
  6
Continuous
 62
     7
100
AcDbLine
 10
-91.58014532543701
 20
-52.01479068842822
 30
0.0
 11
-92.25858380345698
 21
-52.43872609912823
 31
0.0
  0
LINE
  5
4DC
330
2
100
AcDbEntity
  8
0
  6
Continuous
 62
     7
100
AcDbLine
 10
-91.596051768097
 20
-52.08368905456822
 30
0.0
 11
-92.189685434777
 21
-52.45463254178822
 31
0.0
  0
LINE
  5
4DD
330
2
100
AcDbEntity
  8
0
  6
Continuous
 62
     7
100
AcDbLine
 10
-92.054801688797
 20
-52.67049165540822
 30
0.0
 11
-91.46116802211698
 21
-52.29954817072822
 31
0.0
  0
LINE
  5
4DE
330
2
100
AcDbEntity
  8
0
  6
Continuous
 62
     7
100
AcDbLine
 10
-92.07070812891698
 20
-52.73939002408822
 30
0.0
 11
-91.39226965343699
 21
-52.31545461338822
 31
0.0
  0
LINE
  5
4DF
330
2
100
AcDbEntity
  8
0
  6
Continuous
 62
     7
100
AcDbLine
 10
-78.15662082887699
 20
-59.48940705742822
 30
0.0
 11
-58.156581580877
 21
-59.48805429152822
 31
0.0
  0
LINE
  5
4E0
330
2
100
AcDbEntity
  8
0
  6
Continuous
 62
     7
100
AcDbLine
 10
-77.15660826451699
 20
-41.94921508174822
 30
0.0
 11
-77.15660826451699
 21
-40.81927725018822
 31
0.0
  0
LINE
  5
4E1
330
2
100
AcDbEntity
  8
0
  6
Continuous
 62
     7
100
AcDbLine
 10
-89.31848434711699
 20
-55.63420484150822
 30
0.0
 11
-89.99692282513699
 21
-56.05814025474822
 31
0.0
  0
LINE
  5
4E2
330
2
100
AcDbEntity
  8
0
  6
Continuous
 62
     7
100
AcDbLine
 10
-89.92802445645699
 20
-56.07404669486823
 30
0.0
 11
-89.33439078977698
 21
-55.70310321018822
 31
0.0
  0
LINE
  5
4E3
330
2
100
AcDbEntity
  8
0
  6
Continuous
 62
     7
100
AcDbLine
 10
-89.19950704379699
 20
-55.91896232634822
 30
0.0
 11
-89.79314071047699
 21
-56.28990581102822
 31
0.0
  0
LINE
  5
4E4
330
2
100
AcDbEntity
  8
0
  6
Continuous
 62
     7
100
AcDbLine
 10
-89.809047153137
 20
-56.35880417970821
 30
0.0
 11
-89.13060867511699
 21
-55.93486876646821
 31
0.0
  0
LINE
  5
4E5
330
2
100
AcDbEntity
  8
0
  6
Continuous
 62
     7
100
AcDbLine
 10
-88.17303487017699
 20
-55.76893527054822
 30
0.0
 11
-88.766668536857
 21
-56.13987875522822
 31
0.0
  0
LINE
  5
4E6
330
2
100
AcDbEntity
  8
0
  6
Continuous
 62
     7
100
AcDbLine
 10
-89.78432625261699
 20
-56.77578187254822
 30
0.0
 11
-90.377959919297
 21
-57.14672535722822
 31
0.0
  0
LINE
  5
4E7
330
2
100
AcDbEntity
  8
0
  6
Continuous
 62
     7
100
AcDbLine
 10
-90.30906155315699
 20
-57.16263179988823
 30
0.0
 11
-89.80023269527698
 21
-56.84468024122821
 31
0.0
  0
LINE
  5
4E8
330
2
100
AcDbEntity
  8
0
  6
Continuous
 62
     7
100
AcDbLine
 10
-88.69777017071699
 20
-56.15578519534823
 30
0.0
 11
-88.18894131283698
 21
-55.83783363922822
 31
0.0
  0
LINE
  5
4E9
330
2
100
AcDbEntity
  8
0
  6
Continuous
 62
     7
100
AcDbLine
 10
-72.631608264497
 20
-51.09927724894823
 30
0.0
 11
-72.631608264497
 21
-50.33927725002822
 31
0.0
  0
LINE
  5
4EA
330
2
100
AcDbEntity
  8
0
  6
Continuous
 62
     7
100
AcDbLine
 10
-72.33160826251699
 20
-51.09927724894823
 30
0.0
 11
-72.33160826251699
 21
-50.33927725002822
 31
0.0
  0
LINE
  5
4EB
330
2
100
AcDbEntity
  8
0
  6
Continuous
 62
     7
100
AcDbLine
 10
-87.821678153537
 20
-56.42557755136824
 30
0.0
 11
-88.33050701141699
 21
-56.74352911002822
 31
0.0
  0
LINE
  5
4EC
330
2
100
AcDbEntity
  8
0
  6
Continuous
 62
     7
100
AcDbLine
 10
-89.432969535977
 20
-57.43242415336823
 30
0.0
 11
-89.94179839385699
 21
-57.75037571202823
 31
0.0
  0
LINE
  5
4ED
330
2
100
AcDbEntity
  8
0
  6
Continuous
 62
     7
100
AcDbLine
 10
-89.957704836517
 20
-57.81927408070822
 30
0.0
 11
-89.364071167297
 21
-57.44833059602822
 31
0.0
  0
LINE
  5
4EE
330
2
100
AcDbEntity
  8
0
  6
Continuous
 62
     7
100
AcDbLine
 10
-88.34641345153698
 20
-56.81242747870822
 30
0.0
 11
-87.752779784857
 21
-56.44148399402822
 31
0.0
  0
LINE
  5
4EF
330
2
100
AcDbEntity
  8
0
  6
Continuous
 62
     7
100
AcDbLine
 10
-88.21678636001699
 20
-57.39729017232821
 30
0.0
 11
-88.895224838037
 21
-57.82122558302822
 31
0.0
  0
LINE
  5
4F0
330
2
100
AcDbEntity
  8
0
  6
Continuous
 62
     7
100
AcDbLine
 10
-88.826326469357
 20
-57.83713202568821
 30
0.0
 11
-88.232692802677
 21
-57.46618854100822
 31
0.0
  0
LINE
  5
4F1
330
2
100
AcDbEntity
  8
0
  6
Continuous
 62
     7
100
AcDbLine
 10
-88.157733668877
 20
-57.58614822996822
 30
0.0
 11
-88.75136733555699
 21
-57.95709171464822
 31
0.0
  0
LINE
  5
4F2
330
2
100
AcDbEntity
  8
0
  6
Continuous
 62
     7
100
AcDbLine
 10
-88.76727377821699
 20
-58.02599008332823
 30
0.0
 11
-88.08883530019699
 21
-57.60205467008822
 31
0.0
  0
LINE
  5
4F3
330
2
100
AcDbEntity
  8
0
  6
Continuous
 62
     7
100
AcDbLine
 10
-88.35080796395699
 20
-59.20771719154822
 30
0.0
 11
-88.712893191017
 21
-59.43397315254822
 31
0.0
  0
LINE
  5
4F4
330
2
100
AcDbEntity
  8
0
  6
Continuous
 62
     7
100
AcDbLine
 10
-64.881608262877
 20
-52.29927724924822
 30
0.0
 11
-71.43160826419699
 21
-52.29927724924822
 31
0.0
  0
LINE
  5
4F5
330
2
100
AcDbEntity
  8
0
  6
Continuous
 62
     7
100
AcDbLine
 10
-64.881608262877
 20
-51.99927724980823
 30
0.0
 11
-71.43160826419699
 21
-51.99927724980823
 31
0.0
  0
LINE
  5
4F6
330
2
100
AcDbEntity
  8
0
  6
Continuous
 62
     7
100
AcDbLine
 10
-71.43160826419699
 20
-49.43927724916822
 30
0.0
 11
-64.881608262877
 21
-49.43927724916822
 31
0.0
  0
LINE
  5
4F7
330
2
100
AcDbEntity
  8
0
  6
Continuous
 62
     7
100
AcDbLine
 10
-71.43160826419699
 20
-49.13927724972822
 30
0.0
 11
-64.881608262877
 21
-49.13927724972822
 31
0.0
  0
LINE
  5
4F8
330
2
100
AcDbEntity
  8
0
  6
Continuous
 62
     7
100
AcDbLine
 10
-47.96240742519699
 20
-59.20771790274822
 30
0.0
 11
-47.60032333605699
 21
-59.43397315254822
 31
0.0
  0
LINE
  5
4F9
330
2
100
AcDbEntity
  8
0
  6
Continuous
 62
     7
100
AcDbLine
 10
-63.98160826201699
 20
-50.33927725002822
 30
0.0
 11
-63.98160826201699
 21
-51.09927724894823
 31
0.0
  0
LINE
  5
4FA
330
2
100
AcDbEntity
  8
0
  6
Continuous
 62
     7
100
AcDbLine
 10
-63.681608262577
 20
-50.33927725002822
 30
0.0
 11
-63.681608262577
 21
-51.09927724894823
 31
0.0
  0
LINE
  5
4FB
330
2
100
AcDbEntity
  8
0
  6
Continuous
 62
     7
100
AcDbLine
 10
-48.22438122433699
 20
-57.60205467008822
 30
0.0
 11
-47.54594274885699
 21
-58.02599008332823
 31
0.0
  0
LINE
  5
4FC
330
2
100
AcDbEntity
  8
0
  6
Continuous
 62
     7
100
AcDbLine
 10
-48.155482858197
 20
-57.58614822996822
 30
0.0
 11
-47.561849188977
 21
-57.95709171464822
 31
0.0
  0
LINE
  5
4FD
330
2
100
AcDbEntity
  8
0
  6
Continuous
 62
     7
100
AcDbLine
 10
-47.48689005771699
 20
-57.83713202568821
 30
0.0
 11
-48.08052372439699
 21
-57.46618854100822
 31
0.0
  0
LINE
  5
4FE
330
2
100
AcDbEntity
  8
0
  6
Continuous
 62
     7
100
AcDbLine
 10
-47.41799168903699
 20
-57.82122558302822
 30
0.0
 11
-48.09643016451699
 21
-57.39729017232821
 31
0.0
  0
LINE
  5
4FF
330
2
100
AcDbEntity
  8
0
  6
Continuous
 62
     7
100
AcDbLine
 10
-48.56043674221698
 20
-56.44148399402822
 30
0.0
 11
-47.96680307299699
 21
-56.81242747870822
 31
0.0
  0
LINE
  5
500
330
2
100
AcDbEntity
  8
0
  6
Continuous
 62
     7
100
AcDbLine
 10
-46.94914535977699
 20
-57.44833059602822
 30
0.0
 11
-46.35551169055699
 21
-57.81927408070822
 31
0.0
  0
LINE
  5
501
330
2
100
AcDbEntity
  8
0
  6
Continuous
 62
     7
100
AcDbLine
 10
-48.491538373537
 20
-56.42557755136824
 30
0.0
 11
-47.982709515657
 21
-56.74352911002822
 31
0.0
  0
LINE
  5
502
330
2
100
AcDbEntity
  8
0
  6
Continuous
 62
     7
100
AcDbLine
 10
-46.88024699109699
 20
-57.43242415336823
 30
0.0
 11
-46.37141813321699
 21
-57.75037571202823
 31
0.0
  0
LINE
  5
503
330
2
100
AcDbEntity
  8
0
  6
Continuous
 62
     7
100
AcDbLine
 10
-46.004154973917
 20
-57.16263179988823
 30
0.0
 11
-46.51298383179699
 21
-56.84468024122821
 31
0.0
  0
LINE
  5
504
330
2
100
AcDbEntity
  8
0
  6
Continuous
 62
     7
100
AcDbLine
 10
-47.615446356357
 20
-56.15578519534823
 30
0.0
 11
-48.124275214237
 21
-55.83783363922822
 31
0.0
  0
LINE
  5
505
330
2
100
AcDbEntity
  8
0
  6
Continuous
 62
     7
100
AcDbLine
 10
-45.935256605237
 20
-57.14672535722822
 30
0.0
 11
-46.52889027445699
 21
-56.77578187254822
 31
0.0
  0
LINE
  5
506
330
2
100
AcDbEntity
  8
0
  6
Continuous
 62
     7
100
AcDbLine
 10
-47.54654799021699
 20
-56.13987875522822
 30
0.0
 11
-48.140181656897
 21
-55.76893527054822
 31
0.0
  0
LINE
  5
507
330
2
100
AcDbEntity
  8
0
  6
Continuous
 62
     7
100
AcDbLine
 10
-47.182607849417
 20
-55.93486876646821
 30
0.0
 11
-46.50416937393699
 21
-56.35880417970821
 31
0.0
  0
LINE
  5
508
330
2
100
AcDbEntity
  8
0
  6
Continuous
 62
     7
100
AcDbLine
 10
-47.113709483277
 20
-55.91896232634822
 30
0.0
 11
-46.52007581405699
 21
-56.28990581102822
 31
0.0
  0
LINE
  5
509
330
2
100
AcDbEntity
  8
0
  6
Continuous
 62
     7
100
AcDbLine
 10
-46.385192068077
 20
-56.07404669486823
 30
0.0
 11
-46.97882573729699
 21
-55.70310321018822
 31
0.0
  0
LINE
  5
50A
330
2
100
AcDbEntity
  8
0
  6
Continuous
 62
     7
100
AcDbLine
 10
-46.31629370193699
 20
-56.05814025474822
 30
0.0
 11
-46.99473217741699
 21
-55.63420484150822
 31
0.0
  0
LINE
  5
50B
330
2
100
AcDbEntity
  8
0
  6
Continuous
 62
     7
100
AcDbLine
 10
-59.15660826255699
 20
-41.95043256724821
 30
0.0
 11
-59.15660826255699
 21
-40.81927725018822
 31
0.0
  0
LINE
  5
50C
330
2
100
AcDbEntity
  8
0
  6
Continuous
 62
     7
100
AcDbLine
 10
-59.15660826255699
 20
-40.81927725018822
 30
0.0
 11
-77.15660826451699
 21
-40.81927725018822
 31
0.0
  0
LINE
  5
50D
330
2
100
AcDbEntity
  8
0
  6
Continuous
 62
     7
100
AcDbLine
 10
-58.156581580877
 20
-41.95050020744822
 30
0.0
 11
-78.15662082887699
 21
-41.94914744154823
 31
0.0
  0
LINE
  5
50E
330
2
100
AcDbEntity
  8
0
  6
Continuous
 62
     7
100
AcDbLine
 10
-44.92094687363699
 20
-52.31545461338822
 30
0.0
 11
-44.24250839561699
 21
-52.73939002408822
 31
0.0
  0
LINE
  5
50F
330
2
100
AcDbEntity
  8
0
  6
Continuous
 62
     7
100
AcDbLine
 10
-44.258414838277
 20
-52.67049165540822
 30
0.0
 11
-44.852048504957
 21
-52.29954817072822
 31
0.0
  0
LINE
  5
510
330
2
100
AcDbEntity
  8
0
  6
Continuous
 62
     7
100
AcDbLine
 10
-44.71716475897699
 20
-52.08368905456822
 30
0.0
 11
-44.12353109229698
 21
-52.45463254178822
 31
0.0
  0
LINE
  5
511
330
2
100
AcDbEntity
  8
0
  6
Continuous
 62
     7
100
AcDbLine
 10
-44.054632723617
 20
-52.43872609912823
 30
0.0
 11
-44.733071201637
 21
-52.01479068842822
 31
0.0
  0
LINE
  5
512
330
2
100
AcDbEntity
  8
0
  6
Continuous
 62
     7
100
AcDbLine
 10
-45.301983967797
 20
-51.22686951090821
 30
0.0
 11
-44.70835030111699
 21
-51.59781299558822
 31
0.0
  0
LINE
  5
513
330
2
100
AcDbEntity
  8
0
  6
Continuous
 62
     7
100
AcDbLine
 10
-43.690692585357
 20
-52.23371611290822
 30
0.0
 11
-43.09705891867699
 21
-52.60465959758822
 31
0.0
  0
LINE
  5
514
330
2
100
AcDbEntity
  8
0
  6
Continuous
 62
     7
100
AcDbLine
 10
-43.112965358797
 20
-52.53576122890823
 30
0.0
 11
-43.621794216677
 21
-52.21780967024821
 31
0.0
  0
LINE
  5
515
330
2
100
AcDbEntity
  8
0
  6
Continuous
 62
     7
100
AcDbLine
 10
-44.724256743777
 20
-51.52891462690823
 30
0.0
 11
-45.233085599117
 21
-51.21096306824822
 31
0.0
  0
LINE
  5
516
330
2
100
AcDbEntity
  8
0
  6
Continuous
 62
     7
100
AcDbLine
 10
-44.865822442357
 20
-50.62321915356823
 30
0.0
 11
-44.35699358447699
 21
-50.94117071222822
 31
0.0
  0
LINE
  5
517
330
2
100
AcDbEntity
  8
0
  6
Continuous
 62
     7
100
AcDbLine
 10
-43.254531059917
 20
-51.63006575556822
 30
0.0
 11
-42.74570220203701
 21
-51.9480173142282
 31
0.0
  0
LINE
  5
518
330
2
100
AcDbEntity
  8
0
  6
Continuous
 62
     7
100
AcDbLine
 10
-42.676803833357
 20
-51.93211087410822
 30
0.0
 11
-43.27043750003698
 21
-51.56116738942822
 31
0.0
  0
LINE
  5
519
330
2
100
AcDbEntity
  8
0
  6
Continuous
 62
     7
100
AcDbLine
 10
-44.288095215797
 20
-50.92526427210822
 30
0.0
 11
-44.88172888247698
 21
-50.55432078742822
 31
0.0
  0
LINE
  5
51A
330
2
100
AcDbEntity
  8
0
  6
Continuous
 62
     7
100
AcDbLine
 10
-43.81924888653699
 20
-50.55236928256822
 30
0.0
 11
-43.14081040851699
 21
-50.97630469326822
 31
0.0
  0
LINE
  5
51B
330
2
100
AcDbEntity
  8
0
  6
Continuous
 62
     7
100
AcDbLine
 10
-43.15671685117699
 20
-50.90740632712822
 30
0.0
 11
-43.750350517857
 21
-50.53646284244821
 31
0.0
  0
LINE
  5
51C
330
2
100
AcDbEntity
  8
0
  6
Continuous
 62
     7
100
AcDbLine
 10
-43.67539138405699
 20
-50.41650315094823
 30
0.0
 11
-43.081757717377
 21
-50.78744663816822
 31
0.0
  0
LINE
  5
51D
330
2
100
AcDbEntity
  8
0
  6
Continuous
 62
     7
100
AcDbLine
 10
-43.01285934869699
 20
-50.77154019550821
 30
0.0
 11
-43.69129782671699
 21
-50.34760478480823
 31
0.0
  0
LINE
  5
51E
330
2
100
AcDbEntity
  8
0
  6
Continuous
 62
     7
100
AcDbLine
 10
-44.88172888247698
 20
-50.55432078742822
 30
0.0
 11
-45.301983967797
 21
-51.22686951090821
 31
0.0
  0
LINE
  5
51F
330
2
100
AcDbEntity
  8
0
  6
Continuous
 62
     7
100
AcDbLine
 10
-48.140181656897
 20
-55.76893527054822
 30
0.0
 11
-48.56043674221698
 21
-56.44148399402822
 31
0.0
  0
LINE
  5
520
330
2
100
AcDbEntity
  8
0
  6
Continuous
 62
     7
100
AcDbLine
 10
-48.518034335277
 20
-56.46797995576823
 30
0.0
 11
-48.097779252497
 21
-55.79543123228822
 31
0.0
  0
LINE
  5
521
330
2
100
AcDbEntity
  8
0
  6
Continuous
 62
     7
100
AcDbLine
 10
-45.25958156339699
 20
-51.25336547264822
 30
0.0
 11
-44.839326478077
 21
-50.58081674916822
 31
0.0
  0
LINE
  5
522
330
2
100
AcDbEntity
  8
0
  6
Continuous
 62
     7
100
AcDbLine
 10
-44.35699358447699
 20
-50.94117071222822
 30
0.0
 11
-44.724256743777
 21
-51.52891462690823
 31
0.0
  0
LINE
  5
523
330
2
100
AcDbEntity
  8
0
  6
Continuous
 62
     7
100
AcDbLine
 10
-47.982709515657
 20
-56.74352911002822
 30
0.0
 11
-47.615446356357
 21
-56.15578519534823
 31
0.0
  0
LINE
  5
524
330
2
100
AcDbEntity
  8
0
  6
Continuous
 62
     7
100
AcDbLine
 10
-47.96680307299699
 20
-56.81242747870822
 30
0.0
 11
-47.54654799021699
 21
-56.13987875522822
 31
0.0
  0
LINE
  5
525
330
2
100
AcDbEntity
  8
0
  6
Continuous
 62
     7
100
AcDbLine
 10
-44.70835030111699
 20
-51.59781299558822
 30
0.0
 11
-44.288095215797
 21
-50.92526427210822
 31
0.0
  0
LINE
  5
526
330
2
100
AcDbEntity
  8
0
  6
Continuous
 62
     7
100
AcDbLine
 10
-43.69129782671699
 20
-50.34760478480823
 30
0.0
 11
-43.81924888653699
 21
-50.55236928256822
 31
0.0
  0
LINE
  5
527
330
2
100
AcDbEntity
  8
0
  6
Continuous
 62
     7
100
AcDbLine
 10
-44.733071201637
 20
-52.01479068842822
 30
0.0
 11
-44.92094687363699
 21
-52.31545461338822
 31
0.0
  0
LINE
  5
528
330
2
100
AcDbEntity
  8
0
  6
Continuous
 62
     7
100
AcDbLine
 10
-46.99473217741699
 20
-55.63420484150822
 30
0.0
 11
-47.182607849417
 21
-55.93486876646821
 31
0.0
  0
LINE
  5
529
330
2
100
AcDbEntity
  8
0
  6
Continuous
 62
     7
100
AcDbLine
 10
-48.09643016451699
 20
-57.39729017232821
 30
0.0
 11
-48.22438122433699
 21
-57.60205467008822
 31
0.0
  0
LINE
  5
52A
330
2
100
AcDbEntity
  8
0
  6
Continuous
 62
     7
100
AcDbLine
 10
-46.97882573729699
 20
-55.70310321018822
 30
0.0
 11
-47.113709483277
 21
-55.91896232634822
 31
0.0
  0
LINE
  5
52B
330
2
100
AcDbEntity
  8
0
  6
Continuous
 62
     7
100
AcDbLine
 10
-48.08052372439699
 20
-57.46618854100822
 30
0.0
 11
-48.155482858197
 21
-57.58614822996822
 31
0.0
  0
LINE
  5
52C
330
2
100
AcDbEntity
  8
0
  6
Continuous
 62
     7
100
AcDbLine
 10
-44.852048504957
 20
-52.29954817072822
 30
0.0
 11
-44.71716475897699
 21
-52.08368905456822
 31
0.0
  0
LINE
  5
52D
330
2
100
AcDbEntity
  8
0
  6
Continuous
 62
     7
100
AcDbLine
 10
-43.750350517857
 20
-50.53646284244821
 30
0.0
 11
-43.67539138405699
 21
-50.41650315094823
 31
0.0
  0
LINE
  5
52E
330
2
100
AcDbEntity
  8
0
  6
Continuous
 62
     7
100
AcDbLine
 10
-43.081757717377
 20
-50.78744663816822
 30
0.0
 11
-43.15671685117699
 21
-50.90740632712822
 31
0.0
  0
LINE
  5
52F
330
2
100
AcDbEntity
  8
0
  6
Continuous
 62
     7
100
AcDbLine
 10
-44.12353109229698
 20
-52.45463254178822
 30
0.0
 11
-44.258414838277
 21
-52.67049165540822
 31
0.0
  0
LINE
  5
530
330
2
100
AcDbEntity
  8
0
  6
Continuous
 62
     7
100
AcDbLine
 10
-47.561849188977
 20
-57.95709171464822
 30
0.0
 11
-47.48689005771699
 21
-57.83713202568821
 31
0.0
  0
LINE
  5
531
330
2
100
AcDbEntity
  8
0
  6
Continuous
 62
     7
100
AcDbLine
 10
-46.52007581405699
 20
-56.28990581102822
 30
0.0
 11
-46.385192068077
 21
-56.07404669486823
 31
0.0
  0
LINE
  5
532
330
2
100
AcDbEntity
  8
0
  6
Continuous
 62
     7
100
AcDbLine
 10
-47.54594274885699
 20
-58.02599008332823
 30
0.0
 11
-47.41799168903699
 21
-57.82122558302822
 31
0.0
  0
LINE
  5
533
330
2
100
AcDbEntity
  8
0
  6
Continuous
 62
     7
100
AcDbLine
 10
-46.50416937393699
 20
-56.35880417970821
 30
0.0
 11
-46.31629370193699
 21
-56.05814025474822
 31
0.0
  0
LINE
  5
534
330
2
100
AcDbEntity
  8
0
  6
Continuous
 62
     7
100
AcDbLine
 10
-44.24250839561699
 20
-52.73939002408822
 30
0.0
 11
-44.054632723617
 21
-52.43872609912823
 31
0.0
  0
LINE
  5
535
330
2
100
AcDbEntity
  8
0
  6
Continuous
 62
     7
100
AcDbLine
 10
-43.14081040851699
 20
-50.97630469326822
 30
0.0
 11
-43.01285934869699
 21
-50.77154019550821
 31
0.0
  0
LINE
  5
536
330
2
100
AcDbEntity
  8
0
  6
Continuous
 62
     7
100
AcDbLine
 10
-43.27043750003698
 20
-51.56116738942822
 30
0.0
 11
-43.690692585357
 21
-52.23371611290822
 31
0.0
  0
LINE
  5
537
330
2
100
AcDbEntity
  8
0
  6
Continuous
 62
     7
100
AcDbLine
 10
-46.52889027445699
 20
-56.77578187254822
 30
0.0
 11
-46.94914535977699
 21
-57.44833059602822
 31
0.0
  0
LINE
  5
538
330
2
100
AcDbEntity
  8
0
  6
Continuous
 62
     7
100
AcDbLine
 10
-46.51298383179699
 20
-56.84468024122821
 30
0.0
 11
-46.88024699109699
 21
-57.43242415336823
 31
0.0
  0
LINE
  5
539
330
2
100
AcDbEntity
  8
0
  6
Continuous
 62
     7
100
AcDbLine
 10
-43.621794216677
 20
-52.21780967024821
 30
0.0
 11
-43.254531059917
 21
-51.63006575556822
 31
0.0
  0
LINE
  5
53A
330
2
100
AcDbEntity
  8
0
  6
Continuous
 62
     7
100
AcDbLine
 10
-42.71920623775699
 20
-51.90561490982823
 30
0.0
 11
-43.139461323077
 21
-52.57816363330822
 31
0.0
  0
LINE
  5
53B
330
2
100
AcDbEntity
  8
0
  6
Continuous
 62
     7
100
AcDbLine
 10
-47.39362823001699
 20
-59.38625382710823
 30
0.0
 11
-47.16387491761699
 21
-59.01857166940821
 31
0.0
  0
LINE
  5
53C
330
2
100
AcDbEntity
  8
0
  6
Continuous
 62
     7
100
AcDbLine
 10
-46.397914094957
 20
-57.79277811642821
 30
0.0
 11
-45.977659012177
 21
-57.12022939294822
 31
0.0
  0
LINE
  5
53D
330
2
100
AcDbEntity
  8
0
  6
Continuous
 62
     7
100
AcDbLine
 10
-46.35551169055699
 20
-57.81927408070822
 30
0.0
 11
-45.935256605237
 21
-57.14672535722822
 31
0.0
  0
LINE
  5
53E
330
2
100
AcDbEntity
  8
0
  6
Continuous
 62
     7
100
AcDbLine
 10
-43.09705891867699
 20
-52.60465959758822
 30
0.0
 11
-42.676803833357
 21
-51.93211087410822
 31
0.0
  0
LINE
  5
53F
330
2
100
AcDbEntity
  8
0
  6
Continuous
 62
     7
100
AcDbLine
 10
-41.15660826313699
 20
-48.23349475090822
 30
0.0
 11
-41.15660826313699
 21
-53.20505871428821
 31
0.0
  0
LINE
  5
540
330
2
100
AcDbEntity
  8
0
  6
Continuous
 62
     7
100
AcDbLine
 10
19.827155613643
 20
-3.362890329228221
 30
0.0
 11
22.98715561316301
 21
-3.362890329228221
 31
0.0
  0
LINE
  5
541
330
2
100
AcDbEntity
  8
0
  6
Continuous
 62
     7
100
AcDbLine
 10
11.507155614103
 20
23.93696502015176
 30
0.0
 11
11.507155614103
 21
5.937254321651764
 31
0.0
  0
LINE
  5
542
330
2
100
AcDbEntity
  8
0
  6
Continuous
 62
     7
100
AcDbLine
 10
12.63685126174299
 20
3.137109670491781
 30
0.0
 11
12.63685126174299
 21
4.137109672011789
 31
0.0
  0
LINE
  5
543
330
2
100
AcDbEntity
  8
0
  6
Continuous
 62
     7
100
AcDbLine
 10
12.63721783454301
 20
3.137109670491781
 30
0.0
 11
30.17712260480299
 21
3.137109670491781
 31
0.0
  0
LINE
  5
544
330
2
100
AcDbEntity
  8
0
  6
Continuous
 62
     7
100
AcDbLine
 10
12.63721783454301
 20
4.137109672011789
 30
0.0
 11
30.17712271402299
 21
4.137109672011789
 31
0.0
  0
LINE
  5
545
330
2
100
AcDbEntity
  8
0
  6
Continuous
 62
     7
100
AcDbLine
 10
13.90715561216299
 20
26.93710967263176
 30
0.0
 11
13.90715561216299
 21
25.43710967035178
 31
0.0
  0
LINE
  5
546
330
2
100
AcDbEntity
  8
0
  6
Continuous
 62
     7
100
AcDbLine
 10
14.40715561292299
 20
22.13710967143179
 30
0.0
 11
14.40715561292299
 21
23.63710967117176
 31
0.0
  0
LINE
  5
547
330
2
100
AcDbEntity
  8
0
  6
Continuous
 62
     7
100
AcDbLine
 10
14.907155613683
 20
27.23710967207178
 30
0.0
 11
14.907155613683
 21
4.137109672011789
 31
0.0
  0
LINE
  5
548
330
2
100
AcDbEntity
  8
0
  6
Continuous
 62
     7
100
AcDbLine
 10
24.18312189280299
 20
5.438278149171779
 30
0.0
 11
23.00773167310301
 21
5.438278149171779
 31
0.0
  0
LINE
  5
549
330
2
100
AcDbEntity
  8
0
  6
Continuous
 62
     7
100
AcDbLine
 10
25.566229700623
 20
5.438278149171779
 30
0.0
 11
28.06641808098298
 21
5.438278149171779
 31
0.0
  0
LINE
  5
54A
330
2
100
AcDbEntity
  8
0
  6
Continuous
 62
     7
100
AcDbLine
 10
14.907155613683
 20
5.937109671191763
 30
0.0
 11
11.507155614103
 21
5.937109671191763
 31
0.0
  0
LINE
  5
54B
330
2
100
AcDbEntity
  8
0
  6
Continuous
 62
     7
100
AcDbLine
 10
15.70715561388299
 20
27.23710967207178
 30
0.0
 11
15.70715561388299
 21
4.137109672011789
 31
0.0
  0
LINE
  5
54C
330
2
100
AcDbEntity
  8
0
  6
Continuous
 62
     7
100
AcDbLine
 10
22.20412864480299
 20
6.131304304391775
 30
0.0
 11
21.591608569363
 21
6.131304304391775
 31
0.0
  0
LINE
  5
54D
330
2
100
AcDbEntity
  8
0
  6
Continuous
 62
     7
100
AcDbLine
 10
27.54522295116301
 20
6.131304304391775
 30
0.0
 11
29.48254118726301
 21
6.131304304391775
 31
0.0
  0
LINE
  5
54E
330
2
100
AcDbEntity
  8
0
  6
Continuous
 62
     7
100
AcDbLine
 10
21.62342145214298
 20
7.941603142511766
 30
0.0
 11
21.651488975383
 21
7.941603142511766
 31
0.0
  0
LINE
  5
54F
330
2
100
AcDbEntity
  8
0
  6
Continuous
 62
     7
100
AcDbLine
 10
28.09786261804298
 20
7.941603142511766
 30
0.0
 11
28.51652542816301
 21
7.941603142511766
 31
0.0
  0
LINE
  5
550
330
2
100
AcDbEntity
  8
0
  6
Continuous
 62
     7
100
AcDbLine
 10
22.20412864480299
 20
6.131304304391775
 30
0.0
 11
23.00773167310301
 21
5.438278149171779
 31
0.0
  0
LINE
  5
551
330
2
100
AcDbEntity
  8
0
  6
Continuous
 62
     7
100
AcDbLine
 10
28.38931821496301
 20
8.53561734183178
 30
0.0
 11
28.09786261804298
 21
8.53561734183178
 31
0.0
  0
LINE
  5
552
330
2
100
AcDbEntity
  8
0
  6
Continuous
 62
     7
100
AcDbLine
 10
18.921373114823
 20
4.137109672011789
 30
0.0
 11
18.921373114823
 21
3.137109670491781
 31
0.0
  0
LINE
  5
553
330
2
100
AcDbEntity
  8
0
  6
Continuous
 62
     7
100
AcDbLine
 10
19.62750007696299
 20
12.63711791199178
 30
0.0
 11
19.62750007696299
 21
4.137109672011789
 31
0.0
  0
LINE
  5
554
330
2
100
AcDbEntity
  8
0
  6
Continuous
 62
     7
100
AcDbLine
 10
21.73139358316298
 20
9.738882103191784
 30
0.0
 11
22.02284917754299
 21
9.738882103191784
 31
0.0
  0
LINE
  5
555
330
2
100
AcDbEntity
  8
0
  6
Continuous
 62
     7
100
AcDbLine
 10
27.63012719842301
 20
9.836785818991771
 30
0.0
 11
27.92158279280303
 21
9.836785818991771
 31
0.0
  0
LINE
  5
556
330
2
100
AcDbEntity
  8
0
  6
Continuous
 62
     7
100
AcDbLine
 10
19.827155613643
 20
-3.362890329228221
 30
0.0
 11
19.827155613643
 21
3.137109670491781
 31
0.0
  0
LINE
  5
557
330
2
100
AcDbEntity
  8
0
  6
Continuous
 62
     7
100
AcDbLine
 10
20.79332245956301
 20
12.63711791199178
 30
0.0
 11
20.79332245956301
 21
4.137109672011789
 31
0.0
  0
LINE
  5
558
330
2
100
AcDbEntity
  8
0
  6
Continuous
 62
     7
100
AcDbLine
 10
21.000017563063
 20
12.48711791227178
 30
0.0
 11
21.000017563063
 21
4.137109672011789
 31
0.0
  0
LINE
  5
559
330
2
100
AcDbEntity
  8
0
  6
Continuous
 62
     7
100
AcDbLine
 10
28.589609498403
 20
11.15008055587178
 30
0.0
 11
28.88106509532299
 21
11.15008055587178
 31
0.0
  0
LINE
  5
55A
330
2
100
AcDbEntity
  8
0
  6
Continuous
 62
     7
100
AcDbLine
 10
21.62342145214298
 20
9.886669331111775
 30
0.0
 11
21.73139358316298
 21
9.738882103191784
 31
0.0
  0
LINE
  5
55B
330
2
100
AcDbEntity
  8
0
  6
Continuous
 62
     7
100
AcDbLine
 10
22.02284917754299
 20
9.738882103191784
 30
0.0
 11
21.62342145214298
 21
10.28560019187175
 31
0.0
  0
LINE
  5
55C
330
2
100
AcDbEntity
  8
0
  6
Continuous
 62
     7
100
AcDbLine
 10
21.62342145214298
 20
10.51541782469176
 30
0.0
 11
22.119224395003
 21
9.836785818991771
 31
0.0
  0
LINE
  5
55D
330
2
100
AcDbEntity
  8
0
  6
Continuous
 62
     7
100
AcDbLine
 10
21.02715561394301
 20
3.137109670491781
 30
0.0
 11
21.02715561394301
 21
-3.362890329228221
 31
0.0
  0
LINE
  5
55E
330
2
100
AcDbEntity
  8
0
  6
Continuous
 62
     7
100
AcDbLine
 10
21.591608569363
 20
6.131304304391775
 30
0.0
 11
21.591608569363
 21
12.48711791227178
 31
0.0
  0
LINE
  5
55F
330
2
100
AcDbEntity
  8
0
  6
Continuous
 62
     7
100
AcDbLine
 10
21.62342145214298
 20
6.131304304391775
 30
0.0
 11
21.62342145214298
 21
12.48711791227178
 31
0.0
  0
LINE
  5
560
330
2
100
AcDbEntity
  8
0
  6
Continuous
 62
     7
100
AcDbLine
 10
21.651488975383
 20
7.941603142511766
 30
0.0
 11
21.651488975383
 21
8.53561734183178
 31
0.0
  0
LINE
  5
561
330
2
100
AcDbEntity
  8
0
  6
Continuous
 62
     7
100
AcDbLine
 10
21.787155612863
 20
-3.362890329228221
 30
0.0
 11
21.787155612863
 21
3.137109670491781
 31
0.0
  0
LINE
  5
562
330
2
100
AcDbEntity
  8
0
  6
Continuous
 62
     7
100
AcDbLine
 10
21.60751500948301
 20
12.53711791387177
 30
0.0
 11
21.591608569363
 21
12.48711791227178
 31
0.0
  0
LINE
  5
563
330
2
100
AcDbEntity
  8
0
  6
Continuous
 62
     7
100
AcDbLine
 10
21.591608569363
 20
12.48711791227178
 30
0.0
 11
21.000017563063
 21
12.48711791227178
 31
0.0
  0
LINE
  5
564
330
2
100
AcDbEntity
  8
0
  6
Continuous
 62
     7
100
AcDbLine
 10
28.125930143823
 20
12.48711791227178
 30
0.0
 11
29.34474444990299
 21
12.48711791227178
 31
0.0
  0
LINE
  5
565
330
2
100
AcDbEntity
  8
0
  6
Continuous
 62
     7
100
AcDbLine
 10
29.48254118726301
 20
12.48711791227178
 30
0.0
 11
30.07413219102297
 21
12.48711791227178
 31
0.0
  0
LINE
  5
566
330
2
100
AcDbEntity
  8
0
  6
Continuous
 62
     7
100
AcDbLine
 10
19.62750007696299
 20
12.63711791199178
 30
0.0
 11
21.46971827466298
 21
12.63711791199178
 31
0.0
  0
LINE
  5
567
330
2
100
AcDbEntity
  8
0
  6
Continuous
 62
     7
100
AcDbLine
 10
28.279633321303
 20
12.63711791199178
 30
0.0
 11
30.121851516463
 21
12.63711791199178
 31
0.0
  0
LINE
  5
568
330
2
100
AcDbEntity
  8
0
  6
Continuous
 62
     7
100
AcDbLine
 10
20.79332245956301
 20
12.63711791199178
 30
0.0
 11
21.000017563063
 21
12.48711791227178
 31
0.0
  0
LINE
  5
569
330
2
100
AcDbEntity
  8
0
  6
Continuous
 62
     7
100
AcDbLine
 10
21.46971827466298
 20
12.63711791199178
 30
0.0
 11
21.60751500948301
 21
12.53711791387177
 31
0.0
  0
LINE
  5
56A
330
2
100
AcDbEntity
  8
0
  6
Continuous
 62
     7
100
AcDbLine
 10
21.62342145214298
 20
12.48711791227178
 30
0.0
 11
21.60751500948301
 21
12.53711791387177
 31
0.0
  0
LINE
  5
56B
330
2
100
AcDbEntity
  8
0
  6
Continuous
 62
     7
100
AcDbLine
 10
22.98715561316301
 20
3.137109670491781
 30
0.0
 11
22.98715561316301
 21
-3.362890329228221
 31
0.0
  0
LINE
  5
56C
330
2
100
AcDbEntity
  8
0
  6
Continuous
 62
     7
100
AcDbLine
 10
23.89293707820299
 20
3.137109670491781
 30
0.0
 11
23.89293707820299
 21
4.137109672011789
 31
0.0
  0
LINE
  5
56D
330
2
100
AcDbEntity
  8
0
  6
Continuous
 62
     7
100
AcDbLine
 10
24.18312189280299
 20
4.137109672011789
 30
0.0
 11
24.18312189280299
 21
5.438278149171779
 31
0.0
  0
LINE
  5
56E
330
2
100
AcDbEntity
  8
0
  6
Continuous
 62
     7
100
AcDbLine
 10
25.566229700623
 20
4.137109672011789
 30
0.0
 11
25.566229700623
 21
5.438278149171779
 31
0.0
  0
LINE
  5
56F
330
2
100
AcDbEntity
  8
0
  6
Continuous
 62
     7
100
AcDbLine
 10
28.279633321303
 20
12.63711791199178
 30
0.0
 11
28.14183658394301
 21
12.53711791387177
 31
0.0
  0
LINE
  5
570
330
2
100
AcDbEntity
  8
0
  6
Continuous
 62
     7
100
AcDbLine
 10
29.34474444990299
 20
12.48711791227178
 30
0.0
 11
29.413642818583
 21
12.53711791387177
 31
0.0
  0
LINE
  5
571
330
2
100
AcDbEntity
  8
0
  6
Continuous
 62
     7
100
AcDbLine
 10
26.89102786128301
 20
4.137109672011789
 30
0.0
 11
26.89102786128301
 21
5.438278149171779
 31
0.0
  0
LINE
  5
572
330
2
100
AcDbEntity
  8
0
  6
Continuous
 62
     7
100
AcDbLine
 10
15.70715561388299
 20
17.93710967165178
 30
0.0
 11
14.907155613683
 21
17.93710967165178
 31
0.0
  0
LINE
  5
573
330
2
100
AcDbEntity
  8
0
  6
Continuous
 62
     7
100
AcDbLine
 10
29.413642818583
 20
12.53711791387177
 30
0.0
 11
29.48254118726301
 21
12.48711791227178
 31
0.0
  0
LINE
  5
574
330
2
100
AcDbEntity
  8
0
  6
Continuous
 62
     7
100
AcDbLine
 10
28.09786261804298
 20
7.941603142511766
 30
0.0
 11
28.09786261804298
 21
8.53561734183178
 31
0.0
  0
LINE
  5
575
330
2
100
AcDbEntity
  8
0
  6
Continuous
 62
     7
100
AcDbLine
 10
28.125930143823
 20
6.131304304391775
 30
0.0
 11
28.125930143823
 21
7.941603142511766
 31
0.0
  0
LINE
  5
576
330
2
100
AcDbEntity
  8
0
  6
Continuous
 62
     7
100
AcDbLine
 10
28.125930143823
 20
8.909779887891758
 30
0.0
 11
28.125930143823
 21
9.886669331111775
 31
0.0
  0
LINE
  5
577
330
2
100
AcDbEntity
  8
0
  6
Continuous
 62
     7
100
AcDbLine
 10
28.125930143823
 20
10.51541782469176
 30
0.0
 11
28.125930143823
 21
12.48711791227178
 31
0.0
  0
LINE
  5
578
330
2
100
AcDbEntity
  8
0
  6
Continuous
 62
     7
100
AcDbLine
 10
28.125930143823
 20
12.48711791227178
 30
0.0
 11
28.14183658394301
 21
12.53711791387177
 31
0.0
  0
LINE
  5
579
330
2
100
AcDbEntity
  8
0
  6
Continuous
 62
     7
100
AcDbLine
 10
28.589609498403
 20
11.15008055587178
 30
0.0
 11
27.63012719842301
 21
9.836785818991771
 31
0.0
  0
LINE
  5
57A
330
2
100
AcDbEntity
  8
0
  6
Continuous
 62
     7
100
AcDbLine
 10
27.92158279280303
 20
9.836785818991771
 30
0.0
 11
28.88106509532299
 21
11.15008055587178
 31
0.0
  0
LINE
  5
57B
330
2
100
AcDbEntity
  8
0
  6
Continuous
 62
     7
100
AcDbLine
 10
28.88106509532299
 20
10.92026292559178
 30
0.0
 11
28.01795801280302
 21
9.738882103191784
 31
0.0
  0
LINE
  5
57C
330
2
100
AcDbEntity
  8
0
  6
Continuous
 62
     7
100
AcDbLine
 10
28.38931821496301
 20
7.941603142511766
 30
0.0
 11
28.38931821496301
 21
8.53561734183178
 31
0.0
  0
LINE
  5
57D
330
2
100
AcDbEntity
  8
0
  6
Continuous
 62
     7
100
AcDbLine
 10
28.51652542816301
 20
8.53561734183178
 30
0.0
 11
28.51652542816301
 21
7.941603142511766
 31
0.0
  0
LINE
  5
57E
330
2
100
AcDbEntity
  8
0
  6
Continuous
 62
     7
100
AcDbLine
 10
28.88106509532299
 20
11.15008055587178
 30
0.0
 11
28.88106509532299
 21
10.92026292559178
 31
0.0
  0
LINE
  5
57F
330
2
100
AcDbEntity
  8
0
  6
Continuous
 62
     7
100
AcDbLine
 10
29.34474444990299
 20
6.131304304391775
 30
0.0
 11
29.34474444990299
 21
12.48711791227178
 31
0.0
  0
LINE
  5
580
330
2
100
AcDbEntity
  8
0
  6
Continuous
 62
     7
100
AcDbLine
 10
29.445455701363
 20
12.63711791199178
 30
0.0
 11
29.413642818583
 21
12.53711791387177
 31
0.0
  0
LINE
  5
581
330
2
100
AcDbEntity
  8
0
  6
Continuous
 62
     7
100
AcDbLine
 10
29.48254118726301
 20
6.131304304391775
 30
0.0
 11
29.48254118726301
 21
12.48711791227178
 31
0.0
  0
LINE
  5
582
330
2
100
AcDbEntity
  8
0
  6
Continuous
 62
     7
100
AcDbLine
 10
30.07413219102297
 20
12.48711791227178
 30
0.0
 11
30.07413219102297
 21
4.137109672011789
 31
0.0
  0
LINE
  5
583
330
2
100
AcDbEntity
  8
0
  6
Continuous
 62
     7
100
AcDbLine
 10
30.121851516463
 20
12.63711791199178
 30
0.0
 11
30.121851516463
 21
4.137109672011789
 31
0.0
  0
LINE
  5
584
330
2
100
AcDbEntity
  8
0
  6
Continuous
 62
     7
100
AcDbLine
 10
30.17746530160302
 20
3.137109670491781
 30
0.0
 11
30.17746530160302
 21
4.137109672011789
 31
0.0
  0
LINE
  5
585
330
2
100
AcDbEntity
  8
0
  6
Continuous
 62
     7
100
AcDbLine
 10
30.121851516463
 20
12.63711791199178
 30
0.0
 11
30.07413219102297
 21
12.48711791227178
 31
0.0
  0
LINE
  5
586
330
2
100
AcDbEntity
  8
0
  6
Continuous
 62
     7
100
AcDbLine
 10
27.54522295116301
 20
6.131304304391775
 30
0.0
 11
26.741619920323
 21
5.438278149171779
 31
0.0
  0
LINE
  5
587
330
2
100
AcDbEntity
  8
0
  6
Continuous
 62
     7
100
AcDbLine
 10
28.06641808098298
 20
5.438278149171779
 30
0.0
 11
28.870021111823
 21
6.131304304391775
 31
0.0
  0
LINE
  5
588
330
2
100
AcDbEntity
  8
0
  6
Continuous
 62
     7
100
AcDbLine
 10
14.40715561292299
 20
22.13710967143179
 30
0.0
 11
14.907155613683
 21
22.13710967143179
 31
0.0
  0
LINE
  5
589
330
2
100
AcDbEntity
  8
0
  6
Continuous
 62
     7
100
AcDbLine
 10
14.40715561292299
 20
23.63710967117176
 30
0.0
 11
14.907155613683
 21
23.63710967117176
 31
0.0
  0
LINE
  5
58A
330
2
100
AcDbEntity
  8
0
  6
Continuous
 62
     7
100
AcDbLine
 10
15.70715561388299
 20
23.93710967061178
 30
0.0
 11
11.507155614103
 21
23.93710967061178
 31
0.0
  0
LINE
  5
58B
330
2
100
AcDbEntity
  8
0
  6
Continuous
 62
     7
100
AcDbLine
 10
13.90715561216299
 20
25.43710967035178
 30
0.0
 11
14.907155613683
 21
25.43710967035178
 31
0.0
  0
LINE
  5
58C
330
2
100
AcDbEntity
  8
0
  6
Continuous
 62
     7
100
AcDbLine
 10
13.90715561216299
 20
26.93710967263176
 30
0.0
 11
14.907155613683
 21
26.93710967263176
 31
0.0
  0
LINE
  5
58D
330
2
100
AcDbEntity
  8
0
  6
Continuous
 62
     7
100
AcDbLine
 10
15.70715561388299
 20
27.23710967207178
 30
0.0
 11
14.907155613683
 21
27.23710967207178
 31
0.0
  0
LINE
  5
58E
330
2
100
AcDbEntity
  8
0
  6
Continuous
 62
     7
100
AcDbLine
 10
73.26644934190301
 20
3.137109670491781
 30
0.0
 11
73.26644934190301
 21
4.137109672011789
 31
0.0
  0
LINE
  5
58F
330
2
100
AcDbEntity
  8
0
  6
Continuous
 62
     7
100
AcDbLine
 10
73.83333318146299
 20
12.48711791227178
 30
0.0
 11
73.83333318146299
 21
4.137109672011789
 31
0.0
  0
LINE
  5
590
330
2
100
AcDbEntity
  8
0
  6
Continuous
 62
     7
100
AcDbLine
 10
74.20300027042299
 20
6.131304304391775
 30
0.0
 11
74.20300027042299
 21
12.48711791227178
 31
0.0
  0
LINE
  5
591
330
2
100
AcDbEntity
  8
0
  6
Continuous
 62
     7
100
AcDbLine
 10
74.34079700778301
 20
6.131304304391775
 30
0.0
 11
74.34079700778301
 21
12.48711791227178
 31
0.0
  0
LINE
  5
592
330
2
100
AcDbEntity
  8
0
  6
Continuous
 62
     7
100
AcDbLine
 10
75.082839089863
 20
11.15008055587178
 30
0.0
 11
75.082839089863
 21
10.92026292559178
 31
0.0
  0
LINE
  5
593
330
2
100
AcDbEntity
  8
0
  6
Continuous
 62
     7
100
AcDbLine
 10
75.31062875620301
 20
8.53561734183178
 30
0.0
 11
75.31062875620301
 21
7.941603142511766
 31
0.0
  0
LINE
  5
594
330
2
100
AcDbEntity
  8
0
  6
Continuous
 62
     7
100
AcDbLine
 10
75.39011664396298
 20
7.941603142511766
 30
0.0
 11
75.39011664396298
 21
8.53561734183178
 31
0.0
  0
LINE
  5
595
330
2
100
AcDbEntity
  8
0
  6
Continuous
 62
     7
100
AcDbLine
 10
73.88105250690296
 20
12.63711791199178
 30
0.0
 11
73.83333318146299
 21
12.48711791227178
 31
0.0
  0
LINE
  5
596
330
2
100
AcDbEntity
  8
0
  6
Continuous
 62
     7
100
AcDbLine
 10
74.30371152188303
 20
12.63711791199178
 30
0.0
 11
74.27189863910303
 21
12.53711791387177
 31
0.0
  0
LINE
  5
597
330
2
100
AcDbEntity
  8
0
  6
Continuous
 62
     7
100
AcDbLine
 10
75.82235752192298
 20
4.137109672011789
 30
0.0
 11
75.82235752192298
 21
5.438278149171779
 31
0.0
  0
LINE
  5
598
330
2
100
AcDbEntity
  8
0
  6
Continuous
 62
     7
100
AcDbLine
 10
75.85654309744302
 20
7.941603142511766
 30
0.0
 11
75.85654309744302
 21
8.53561734183178
 31
0.0
  0
LINE
  5
599
330
2
100
AcDbEntity
  8
0
  6
Continuous
 62
     7
100
AcDbLine
 10
76.29130762796302
 20
6.131304304391775
 30
0.0
 11
76.29130762796302
 21
12.48711791227178
 31
0.0
  0
LINE
  5
59A
330
2
100
AcDbEntity
  8
0
  6
Continuous
 62
     7
100
AcDbLine
 10
76.32312051074302
 20
6.131304304391775
 30
0.0
 11
76.32312051074302
 21
12.48711791227178
 31
0.0
  0
LINE
  5
59B
330
2
100
AcDbEntity
  8
0
  6
Continuous
 62
     7
100
AcDbLine
 10
77.266449342903
 20
23.93710967061178
 30
0.0
 11
77.266449342903
 21
17.93710967165178
 31
0.0
  0
LINE
  5
59C
330
2
100
AcDbEntity
  8
0
  6
Continuous
 62
     7
100
AcDbLine
 10
77.514444970863
 20
4.137109672011789
 30
0.0
 11
77.514444970863
 21
5.438278149171779
 31
0.0
  0
LINE
  5
59D
330
2
100
AcDbEntity
  8
0
  6
Continuous
 62
     7
100
AcDbLine
 10
76.29130762796302
 20
12.48711791227178
 30
0.0
 11
76.307214068083
 21
12.53711791387177
 31
0.0
  0
LINE
  5
59E
330
2
100
AcDbEntity
  8
0
  6
Continuous
 62
     7
100
AcDbLine
 10
74.585745293603
 20
6.131304304391775
 30
0.0
 11
75.08789219634298
 21
5.438278149171779
 31
0.0
  0
LINE
  5
59F
330
2
100
AcDbEntity
  8
0
  6
Continuous
 62
     7
100
AcDbLine
 10
77.20801243666301
 20
5.438278149171779
 30
0.0
 11
76.70586553392297
 21
6.131304304391775
 31
0.0
  0
LINE
  5
5A0
330
2
100
AcDbEntity
  8
0
  6
Continuous
 62
     7
100
AcDbLine
 10
75.622168252503
 20
9.738882103191784
 30
0.0
 11
75.082839089863
 21
10.92026292559178
 31
0.0
  0
LINE
  5
5A1
330
2
100
AcDbEntity
  8
0
  6
Continuous
 62
     7
100
AcDbLine
 10
75.082839089863
 20
11.15008055587178
 30
0.0
 11
75.68239017422303
 21
9.836785818991771
 31
0.0
  0
LINE
  5
5A2
330
2
100
AcDbEntity
  8
0
  6
Continuous
 62
     7
100
AcDbLine
 10
76.14881662770301
 20
9.836785818991771
 30
0.0
 11
75.54926554334298
 21
11.15008055587178
 31
0.0
  0
LINE
  5
5A3
330
2
100
AcDbEntity
  8
0
  6
Continuous
 62
     7
100
AcDbLine
 10
76.307214068083
 20
12.53711791387177
 30
0.0
 11
76.32312051074302
 21
12.48711791227178
 31
0.0
  0
LINE
  5
5A4
330
2
100
AcDbEntity
  8
0
  6
Continuous
 62
     7
100
AcDbLine
 10
79.13380222236298
 20
6.131304304391775
 30
0.0
 11
79.13380222236298
 21
12.48711791227178
 31
0.0
  0
LINE
  5
5A5
330
2
100
AcDbEntity
  8
0
  6
Continuous
 62
     7
100
AcDbLine
 10
79.503469308783
 20
12.48711791227178
 30
0.0
 11
79.503469308783
 21
4.137109672011789
 31
0.0
  0
LINE
  5
5A6
330
2
100
AcDbEntity
  8
0
  6
Continuous
 62
     7
100
AcDbLine
 10
79.710164414823
 20
12.63711791199178
 30
0.0
 11
79.710164414823
 21
4.137109672011789
 31
0.0
  0
LINE
  5
5A7
330
2
100
AcDbEntity
  8
0
  6
Continuous
 62
     7
100
AcDbLine
 10
81.57587022620299
 20
12.63711791199178
 30
0.0
 11
81.57587022620299
 21
4.137109672011789
 31
0.0
  0
LINE
  5
5A8
330
2
100
AcDbEntity
  8
0
  6
Continuous
 62
     7
100
AcDbLine
 10
81.62358954910303
 20
12.48711791227178
 30
0.0
 11
81.62358954910303
 21
4.137109672011789
 31
0.0
  0
LINE
  5
5A9
330
2
100
AcDbEntity
  8
0
  6
Continuous
 62
     7
100
AcDbLine
 10
79.14970866248296
 20
12.53711791387177
 30
0.0
 11
79.13380222236298
 21
12.48711791227178
 31
0.0
  0
LINE
  5
5AA
330
2
100
AcDbEntity
  8
0
  6
Continuous
 62
     7
100
AcDbLine
 10
81.57587022620299
 20
12.63711791199178
 30
0.0
 11
81.62358954910303
 21
12.48711791227178
 31
0.0
  0
LINE
  5
5AB
330
2
100
AcDbEntity
  8
0
  6
Continuous
 62
     7
100
AcDbLine
 10
74.27189863910303
 20
12.53711791387177
 30
0.0
 11
74.20300027042299
 21
12.48711791227178
 31
0.0
  0
LINE
  5
5AC
330
2
100
AcDbEntity
  8
0
  6
Continuous
 62
     7
100
AcDbLine
 10
95.79144934134296
 20
-3.362890329228221
 30
0.0
 11
104.741449343263
 21
-3.362890329228221
 31
0.0
  0
LINE
  5
5AD
330
2
100
AcDbEntity
  8
0
  6
Continuous
 62
     7
100
AcDbLine
 10
74.34079700524302
 20
12.48711791227178
 30
0.0
 11
74.27189863910303
 21
12.53711791387177
 31
0.0
  0
LINE
  5
5AE
330
2
100
AcDbEntity
  8
0
  6
Continuous
 62
     7
100
AcDbLine
 10
78.248910293903
 20
5.438278149171779
 30
0.0
 11
78.75105719918298
 21
6.131304304391775
 31
0.0
  0
LINE
  5
5AF
330
2
100
AcDbEntity
  8
0
  6
Continuous
 62
     7
100
AcDbLine
 10
79.28750539984299
 20
12.63711791199178
 30
0.0
 11
79.14970866248296
 21
12.53711791387177
 31
0.0
  0
LINE
  5
5B0
330
2
100
AcDbEntity
  8
0
  6
Continuous
 62
     7
100
AcDbLine
 10
79.710164414823
 20
12.63711791199178
 30
0.0
 11
79.503469308783
 21
12.48711791227178
 31
0.0
  0
LINE
  5
5B1
330
2
100
AcDbEntity
  8
0
  6
Continuous
 62
     7
100
AcDbLine
 10
76.16941733326303
 20
12.63711791199178
 30
0.0
 11
76.307214068083
 21
12.53711791387177
 31
0.0
  0
LINE
  5
5B2
330
2
100
AcDbEntity
  8
0
  6
Continuous
 62
     7
100
AcDbLine
 10
90.26644934234298
 20
17.93710967165178
 30
0.0
 11
90.26642265964301
 21
3.137109670491781
 31
0.0
  0
LINE
  5
5B3
330
2
100
AcDbEntity
  8
0
  6
Continuous
 62
     7
100
AcDbLine
 10
73.26644934190301
 20
3.137109670491781
 30
0.0
 11
127.2664493427029
 21
3.137109670491781
 31
0.0
  0
LINE
  5
5B4
330
2
100
AcDbEntity
  8
0
  6
Continuous
 62
     7
100
AcDbLine
 10
73.26644934190301
 20
4.137109672011789
 30
0.0
 11
127.2664493427029
 21
4.137109672011789
 31
0.0
  0
LINE
  5
5B5
330
2
100
AcDbEntity
  8
0
  6
Continuous
 62
     7
100
AcDbLine
 10
75.08789219634298
 20
5.438278149171779
 30
0.0
 11
78.248910293903
 21
5.438278149171779
 31
0.0
  0
LINE
  5
5B6
330
2
100
AcDbEntity
  8
0
  6
Continuous
 62
     7
100
AcDbLine
 10
122.283988388163
 20
5.438278149171779
 30
0.0
 11
125.445006488263
 21
5.438278149171779
 31
0.0
  0
LINE
  5
5B7
330
2
100
AcDbEntity
  8
0
  6
Continuous
 62
     7
100
AcDbLine
 10
95.79144934134296
 20
-3.362890329228221
 30
0.0
 11
95.79144934134296
 21
3.137109670491781
 31
0.0
  0
LINE
  5
5B8
330
2
100
AcDbEntity
  8
0
  6
Continuous
 62
     7
100
AcDbLine
 10
121.781841485423
 20
6.131304304391775
 30
0.0
 11
121.399096462243
 21
6.131304304391775
 31
0.0
  0
LINE
  5
5B9
330
2
100
AcDbEntity
  8
0
  6
Continuous
 62
     7
100
AcDbLine
 10
76.70586553392297
 20
6.131304304391775
 30
0.0
 11
74.20300027042299
 21
6.131304304391775
 31
0.0
  0
LINE
  5
5BA
330
2
100
AcDbEntity
  8
0
  6
Continuous
 62
     7
100
AcDbLine
 10
78.75105719918298
 20
6.131304304391775
 30
0.0
 11
79.13380222236298
 21
6.131304304391775
 31
0.0
  0
LINE
  5
5BB
330
2
100
AcDbEntity
  8
0
  6
Continuous
 62
     7
100
AcDbLine
 10
123.827033150683
 20
6.131304304391775
 30
0.0
 11
126.329898414183
 21
6.131304304391775
 31
0.0
  0
LINE
  5
5BC
330
2
100
AcDbEntity
  8
0
  6
Continuous
 62
     7
100
AcDbLine
 10
75.31062875620301
 20
7.941603142511766
 30
0.0
 11
75.85654309744302
 21
7.941603142511766
 31
0.0
  0
LINE
  5
5BD
330
2
100
AcDbEntity
  8
0
  6
Continuous
 62
     7
100
AcDbLine
 10
124.676355587163
 20
7.941603142511766
 30
0.0
 11
125.222269928403
 21
7.941603142511766
 31
0.0
  0
LINE
  5
5BE
330
2
100
AcDbEntity
  8
0
  6
Continuous
 62
     7
100
AcDbLine
 10
96.51644934168302
 20
27.23710967207178
 30
0.0
 11
96.51644934168302
 21
23.93710967061178
 31
0.0
  0
LINE
  5
5BF
330
2
100
AcDbEntity
  8
0
  6
Continuous
 62
     7
100
AcDbLine
 10
96.99144934164298
 20
3.137109670491781
 30
0.0
 11
96.99144934164298
 21
-3.362890329228221
 31
0.0
  0
LINE
  5
5C0
330
2
100
AcDbEntity
  8
0
  6
Continuous
 62
     7
100
AcDbLine
 10
125.142782038103
 20
8.53561734183178
 30
0.0
 11
124.676355587163
 21
8.53561734183178
 31
0.0
  0
LINE
  5
5C1
330
2
100
AcDbEntity
  8
0
  6
Continuous
 62
     7
100
AcDbLine
 10
75.85654309744302
 20
8.53561734183178
 30
0.0
 11
75.39011664396298
 21
8.53561734183178
 31
0.0
  0
LINE
  5
5C2
330
2
100
AcDbEntity
  8
0
  6
Continuous
 62
     7
100
AcDbLine
 10
75.68239017422303
 20
9.836785818991771
 30
0.0
 11
76.14881662770301
 21
9.836785818991771
 31
0.0
  0
LINE
  5
5C3
330
2
100
AcDbEntity
  8
0
  6
Continuous
 62
     7
100
AcDbLine
 10
124.3840820569029
 20
9.836785818991771
 30
0.0
 11
124.850508510383
 21
9.836785818991771
 31
0.0
  0
LINE
  5
5C4
330
2
100
AcDbEntity
  8
0
  6
Continuous
 62
     7
100
AcDbLine
 10
75.54926554334298
 20
11.15008055587178
 30
0.0
 11
75.082839089863
 21
11.15008055587178
 31
0.0
  0
LINE
  5
5C5
330
2
100
AcDbEntity
  8
0
  6
Continuous
 62
     7
100
AcDbLine
 10
124.983633141263
 20
11.15008055587178
 30
0.0
 11
125.450059594743
 21
11.15008055587178
 31
0.0
  0
LINE
  5
5C6
330
2
100
AcDbEntity
  8
0
  6
Continuous
 62
     7
100
AcDbLine
 10
121.399096462243
 20
12.48711791227178
 30
0.0
 11
121.029429375823
 21
12.48711791227178
 31
0.0
  0
LINE
  5
5C7
330
2
100
AcDbEntity
  8
0
  6
Continuous
 62
     7
100
AcDbLine
 10
76.29130762796302
 20
12.48711791227178
 30
0.0
 11
74.34079700524302
 21
12.48711791227178
 31
0.0
  0
LINE
  5
5C8
330
2
100
AcDbEntity
  8
0
  6
Continuous
 62
     7
100
AcDbLine
 10
74.20300027042299
 20
12.48711791227178
 30
0.0
 11
73.83333318146299
 21
12.48711791227178
 31
0.0
  0
LINE
  5
5C9
330
2
100
AcDbEntity
  8
0
  6
Continuous
 62
     7
100
AcDbLine
 10
79.13380222236298
 20
12.48711791227178
 30
0.0
 11
79.503469308783
 21
12.48711791227178
 31
0.0
  0
LINE
  5
5CA
330
2
100
AcDbEntity
  8
0
  6
Continuous
 62
     7
100
AcDbLine
 10
124.241591056643
 20
12.48711791227178
 30
0.0
 11
126.192101676823
 21
12.48711791227178
 31
0.0
  0
LINE
  5
5CB
330
2
100
AcDbEntity
  8
0
  6
Continuous
 62
     7
100
AcDbLine
 10
126.329898414183
 20
12.48711791227178
 30
0.0
 11
126.699565503143
 21
12.48711791227178
 31
0.0
  0
LINE
  5
5CC
330
2
100
AcDbEntity
  8
0
  6
Continuous
 62
     7
100
AcDbLine
 10
76.16941733326303
 20
12.63711791199178
 30
0.0
 11
73.88105250690296
 21
12.63711791199178
 31
0.0
  0
LINE
  5
5CD
330
2
100
AcDbEntity
  8
0
  6
Continuous
 62
     7
100
AcDbLine
 10
79.28750539984299
 20
12.63711791199178
 30
0.0
 11
81.57587022620299
 21
12.63711791199178
 31
0.0
  0
LINE
  5
5CE
330
2
100
AcDbEntity
  8
0
  6
Continuous
 62
     7
100
AcDbLine
 10
118.957028458403
 20
12.63711791199178
 30
0.0
 11
121.245393284763
 21
12.63711791199178
 31
0.0
  0
LINE
  5
5CF
330
2
100
AcDbEntity
  8
0
  6
Continuous
 62
     7
100
AcDbLine
 10
124.363481351343
 20
12.63711791199178
 30
0.0
 11
126.6518461777029
 21
12.63711791199178
 31
0.0
  0
LINE
  5
5D0
330
2
100
AcDbEntity
  8
0
  6
Continuous
 62
     7
100
AcDbLine
 10
103.541449342963
 20
-3.362890329228221
 30
0.0
 11
103.541449342963
 21
3.137109670491781
 31
0.0
  0
LINE
  5
5D1
330
2
100
AcDbEntity
  8
0
  6
Continuous
 62
     7
100
AcDbLine
 10
104.016449342923
 20
23.93710967061178
 30
0.0
 11
104.016449342923
 21
27.23710967207178
 31
0.0
  0
LINE
  5
5D2
330
2
100
AcDbEntity
  8
0
  6
Continuous
 62
     7
100
AcDbLine
 10
104.741449343263
 20
3.137109670491781
 30
0.0
 11
104.741449343263
 21
-3.362890329228221
 31
0.0
  0
LINE
  5
5D3
330
2
100
AcDbEntity
  8
0
  6
Continuous
 62
     7
100
AcDbLine
 10
77.266449342903
 20
17.93710967165178
 30
0.0
 11
90.26644934234298
 21
17.93710967165178
 31
0.0
  0
LINE
  5
5D4
330
2
100
AcDbEntity
  8
0
  6
Continuous
 62
     7
100
AcDbLine
 10
110.266449342263
 20
17.93710967165178
 30
0.0
 11
123.266449341703
 21
17.93710967165178
 31
0.0
  0
LINE
  5
5D5
330
2
100
AcDbEntity
  8
0
  6
Continuous
 62
     7
100
AcDbLine
 10
110.266461907643
 20
3.137109670491781
 30
0.0
 11
110.266449342263
 21
17.93710967165178
 31
0.0
  0
LINE
  5
5D6
330
2
100
AcDbEntity
  8
0
  6
Continuous
 62
     7
100
AcDbLine
 10
77.266449342903
 20
23.93710967061178
 30
0.0
 11
96.51644934168302
 21
23.93710967061178
 31
0.0
  0
LINE
  5
5D7
330
2
100
AcDbEntity
  8
0
  6
Continuous
 62
     7
100
AcDbLine
 10
104.016449342923
 20
23.93710967061178
 30
0.0
 11
123.266449341703
 21
23.93710967061178
 31
0.0
  0
LINE
  5
5D8
330
2
100
AcDbEntity
  8
0
  6
Continuous
 62
     7
100
AcDbLine
 10
120.822734269783
 20
12.63711791199178
 30
0.0
 11
121.029429375823
 21
12.48711791227178
 31
0.0
  0
LINE
  5
5D9
330
2
100
AcDbEntity
  8
0
  6
Continuous
 62
     7
100
AcDbLine
 10
124.363481351343
 20
12.63711791199178
 30
0.0
 11
124.225684613983
 21
12.53711791387177
 31
0.0
  0
LINE
  5
5DA
330
2
100
AcDbEntity
  8
0
  6
Continuous
 62
     7
100
AcDbLine
 10
121.245393284763
 20
12.63711791199178
 30
0.0
 11
121.383190022123
 21
12.53711791387177
 31
0.0
  0
LINE
  5
5DB
330
2
100
AcDbEntity
  8
0
  6
Continuous
 62
     7
100
AcDbLine
 10
121.781841485423
 20
6.131304304391775
 30
0.0
 11
122.283988388163
 21
5.438278149171779
 31
0.0
  0
LINE
  5
5DC
330
2
100
AcDbEntity
  8
0
  6
Continuous
 62
     7
100
AcDbLine
 10
126.192101676823
 20
12.48711791227178
 30
0.0
 11
126.2610000455029
 21
12.53711791387177
 31
0.0
  0
LINE
  5
5DD
330
2
100
AcDbEntity
  8
0
  6
Continuous
 62
     7
100
AcDbLine
 10
104.016449342923
 20
27.23710967207178
 30
0.0
 11
96.51644934168302
 21
27.23710967207178
 31
0.0
  0
LINE
  5
5DE
330
2
100
AcDbEntity
  8
0
  6
Continuous
 62
     7
100
AcDbLine
 10
126.2610000455029
 20
12.53711791387177
 30
0.0
 11
126.329898414183
 21
12.48711791227178
 31
0.0
  0
LINE
  5
5DF
330
2
100
AcDbEntity
  8
0
  6
Continuous
 62
     7
100
AcDbLine
 10
118.909309132963
 20
12.48711791227178
 30
0.0
 11
118.909309132963
 21
4.137109672011789
 31
0.0
  0
LINE
  5
5E0
330
2
100
AcDbEntity
  8
0
  6
Continuous
 62
     7
100
AcDbLine
 10
118.957028458403
 20
12.63711791199178
 30
0.0
 11
118.957028458403
 21
4.137109672011789
 31
0.0
  0
LINE
  5
5E1
330
2
100
AcDbEntity
  8
0
  6
Continuous
 62
     7
100
AcDbLine
 10
118.957028458403
 20
12.63711791199178
 30
0.0
 11
118.909309132963
 21
12.48711791227178
 31
0.0
  0
LINE
  5
5E2
330
2
100
AcDbEntity
  8
0
  6
Continuous
 62
     7
100
AcDbLine
 10
120.822734269783
 20
12.63711791199178
 30
0.0
 11
120.822734269783
 21
4.137109672011789
 31
0.0
  0
LINE
  5
5E3
330
2
100
AcDbEntity
  8
0
  6
Continuous
 62
     7
100
AcDbLine
 10
121.029429375823
 20
12.48711791227178
 30
0.0
 11
121.029429375823
 21
4.137109672011789
 31
0.0
  0
LINE
  5
5E4
330
2
100
AcDbEntity
  8
0
  6
Continuous
 62
     7
100
AcDbLine
 10
121.383190022123
 20
12.53711791387177
 30
0.0
 11
121.399096462243
 21
12.48711791227178
 31
0.0
  0
LINE
  5
5E5
330
2
100
AcDbEntity
  8
0
  6
Continuous
 62
     7
100
AcDbLine
 10
121.399096462243
 20
6.131304304391775
 30
0.0
 11
121.399096462243
 21
12.48711791227178
 31
0.0
  0
LINE
  5
5E6
330
2
100
AcDbEntity
  8
0
  6
Continuous
 62
     7
100
AcDbLine
 10
123.018453713743
 20
4.137109672011789
 30
0.0
 11
123.018453713743
 21
5.438278149171779
 31
0.0
  0
LINE
  5
5E7
330
2
100
AcDbEntity
  8
0
  6
Continuous
 62
     7
100
AcDbLine
 10
123.266449341703
 20
17.93710967165178
 30
0.0
 11
123.266449341703
 21
23.93710967061178
 31
0.0
  0
LINE
  5
5E8
330
2
100
AcDbEntity
  8
0
  6
Continuous
 62
     7
100
AcDbLine
 10
124.225684613983
 20
12.53711791387177
 30
0.0
 11
124.209778173863
 21
12.48711791227178
 31
0.0
  0
LINE
  5
5E9
330
2
100
AcDbEntity
  8
0
  6
Continuous
 62
     7
100
AcDbLine
 10
124.983633141263
 20
11.15008055587178
 30
0.0
 11
124.3840820569029
 21
9.836785818991771
 31
0.0
  0
LINE
  5
5EA
330
2
100
AcDbEntity
  8
0
  6
Continuous
 62
     7
100
AcDbLine
 10
123.827033150683
 20
6.131304304391775
 30
0.0
 11
123.3248862479429
 21
5.438278149171779
 31
0.0
  0
LINE
  5
5EB
330
2
100
AcDbEntity
  8
0
  6
Continuous
 62
     7
100
AcDbLine
 10
124.241591056643
 20
12.48711791227178
 30
0.0
 11
124.225684613983
 21
12.53711791387177
 31
0.0
  0
LINE
  5
5EC
330
2
100
AcDbEntity
  8
0
  6
Continuous
 62
     7
100
AcDbLine
 10
124.209778173863
 20
6.131304304391775
 30
0.0
 11
124.209778173863
 21
12.48711791227178
 31
0.0
  0
LINE
  5
5ED
330
2
100
AcDbEntity
  8
0
  6
Continuous
 62
     7
100
AcDbLine
 10
124.241591056643
 20
6.131304304391775
 30
0.0
 11
124.241591056643
 21
12.48711791227178
 31
0.0
  0
LINE
  5
5EE
330
2
100
AcDbEntity
  8
0
  6
Continuous
 62
     7
100
AcDbLine
 10
124.676355587163
 20
7.941603142511766
 30
0.0
 11
124.676355587163
 21
8.53561734183178
 31
0.0
  0
LINE
  5
5EF
330
2
100
AcDbEntity
  8
0
  6
Continuous
 62
     7
100
AcDbLine
 10
124.710541162683
 20
4.137109672011789
 30
0.0
 11
124.710541162683
 21
5.438278149171779
 31
0.0
  0
LINE
  5
5F0
330
2
100
AcDbEntity
  8
0
  6
Continuous
 62
     7
100
AcDbLine
 10
125.142782038103
 20
7.941603142511766
 30
0.0
 11
125.142782038103
 21
8.53561734183178
 31
0.0
  0
LINE
  5
5F1
330
2
100
AcDbEntity
  8
0
  6
Continuous
 62
     7
100
AcDbLine
 10
125.222269928403
 20
8.53561734183178
 30
0.0
 11
125.222269928403
 21
7.941603142511766
 31
0.0
  0
LINE
  5
5F2
330
2
100
AcDbEntity
  8
0
  6
Continuous
 62
     7
100
AcDbLine
 10
124.850508510383
 20
9.836785818991771
 30
0.0
 11
125.450059594743
 21
11.15008055587178
 31
0.0
  0
LINE
  5
5F3
330
2
100
AcDbEntity
  8
0
  6
Continuous
 62
     7
100
AcDbLine
 10
125.450059594743
 20
10.92026292559178
 30
0.0
 11
124.910730429563
 21
9.738882103191784
 31
0.0
  0
LINE
  5
5F4
330
2
100
AcDbEntity
  8
0
  6
Continuous
 62
     7
100
AcDbLine
 10
125.445006488263
 20
5.438278149171779
 30
0.0
 11
125.947153391003
 21
6.131304304391775
 31
0.0
  0
LINE
  5
5F5
330
2
100
AcDbEntity
  8
0
  6
Continuous
 62
     7
100
AcDbLine
 10
126.229187162723
 20
12.63711791199178
 30
0.0
 11
126.2610000455029
 21
12.53711791387177
 31
0.0
  0
LINE
  5
5F6
330
2
100
AcDbEntity
  8
0
  6
Continuous
 62
     7
100
AcDbLine
 10
125.450059594743
 20
11.15008055587178
 30
0.0
 11
125.450059594743
 21
10.92026292559178
 31
0.0
  0
LINE
  5
5F7
330
2
100
AcDbEntity
  8
0
  6
Continuous
 62
     7
100
AcDbLine
 10
126.192101676823
 20
6.131304304391775
 30
0.0
 11
126.192101676823
 21
12.48711791227178
 31
0.0
  0
LINE
  5
5F8
330
2
100
AcDbEntity
  8
0
  6
Continuous
 62
     7
100
AcDbLine
 10
126.329898414183
 20
6.131304304391775
 30
0.0
 11
126.329898414183
 21
12.48711791227178
 31
0.0
  0
LINE
  5
5F9
330
2
100
AcDbEntity
  8
0
  6
Continuous
 62
     7
100
AcDbLine
 10
126.699565503143
 20
12.48711791227178
 30
0.0
 11
126.699565503143
 21
4.137109672011789
 31
0.0
  0
LINE
  5
5FA
330
2
100
AcDbEntity
  8
0
  6
Continuous
 62
     7
100
AcDbLine
 10
127.2664493427029
 20
4.137109672011789
 30
0.0
 11
127.2664493427029
 21
3.137109670491781
 31
0.0
  0
LINE
  5
5FB
330
2
100
AcDbEntity
  8
0
  6
Continuous
 62
     7
100
AcDbLine
 10
126.6518461777029
 20
12.63711791199178
 30
0.0
 11
126.699565503143
 21
12.48711791227178
 31
0.0
  0
CIRCLE
  5
5FC
330
2
100
AcDbEntity
  8
0
  6
Continuous
 62
     2
100
AcDbCircle
 10
-68.15660826353699
 20
14.93710967217175
 30
0.0
 40
9.00000000098
  0
ARC
  5
5FD
330
2
100
AcDbEntity
  8
0
  6
Continuous
 62
     7
100
AcDbCircle
 10
-57.42990933343699
 20
1877.011125267771
 30
0.0
 40
1813.27767090756
100
AcDbArc
 50
269.9770384284995
 51
270.1939445519995
  0
ARC
  5
5FE
330
2
100
AcDbEntity
  8
0
  6
Continuous
 62
     7
100
AcDbCircle
 10
-78.883307193637
 20
1877.011125267771
 30
0.0
 40
1813.27767090756
100
AcDbArc
 50
269.8060554480004
 51
270.0229618014001
  0
ARC
  5
5FF
330
2
100
AcDbEntity
  8
0
  6
Continuous
 62
     7
100
AcDbCircle
 10
-78.92371046309699
 20
-1704.877017306868
 30
0.0
 40
1786.15108570694
100
AcDbArc
 50
89.97539348690006
 51
90.19559381719956
  0
ARC
  5
600
330
2
100
AcDbEntity
  8
0
  6
Continuous
 62
     7
100
AcDbCircle
 10
-57.389506063977
 20
-1704.877017306868
 30
0.0
 40
1786.15108570694
100
AcDbArc
 50
89.80440618320024
 51
90.02460634019987
  0
ARC
  5
601
330
2
100
AcDbEntity
  8
0
  6
Continuous
 62
     7
100
AcDbCircle
 10
-86.562593798457
 20
71.47039528711179
 30
0.0
 40
9.684511690119999
100
AcDbArc
 50
105.4918630369998
 51
106.7291590044001
  0
ARC
  5
602
330
2
100
AcDbEntity
  8
0
  6
Continuous
 62
     7
100
AcDbCircle
 10
-49.750622627017
 20
71.47039564017177
 30
0.0
 40
9.68451132436
100
AcDbArc
 50
73.27084005549988
 51
74.50813697859996
  0
CIRCLE
  5
603
330
2
100
AcDbEntity
  8
0
  6
Continuous
 62
     7
100
AcDbCircle
 10
-47.45660826407699
 20
70.70375871269175
 30
0.0
 40
0.9999999989799999
  0
CIRCLE
  5
604
330
2
100
AcDbEntity
  8
0
  6
Continuous
 62
     7
100
AcDbCircle
 10
-88.85660826299698
 20
70.70375871269175
 30
0.0
 40
0.9999999989799999
  0
CIRCLE
  5
605
330
2
100
AcDbEntity
  8
0
  6
Continuous
 62
     7
100
AcDbCircle
 10
-49.95660826279699
 20
76.70375871165174
 30
0.0
 40
0.6500000004800001
  0
CIRCLE
  5
606
330
2
100
AcDbEntity
  8
0
  6
Continuous
 62
     7
100
AcDbCircle
 10
-86.35660826427701
 20
76.70375871165174
 30
0.0
 40
0.6500000004800001
  0
ARC
  5
607
330
2
100
AcDbEntity
  8
0
  6
Continuous
 62
     7
100
AcDbCircle
 10
-78.883307193637
 20
-1855.226643805388
 30
0.0
 40
1813.27767090756
100
AcDbArc
 50
89.97703825849974
 51
90.19415392069957
  0
ARC
  5
608
330
2
100
AcDbEntity
  8
0
  6
Continuous
 62
     7
100
AcDbCircle
 10
-57.42990933343699
 20
-1855.226643805388
 30
0.0
 40
1813.27767090756
100
AcDbArc
 50
89.8058460793004
 51
90.02296108569975
  0
ARC
  5
609
330
2
100
AcDbEntity
  8
0
  6
Continuous
 62
     7
100
AcDbCircle
 10
-57.389506063977
 20
1726.661498769251
 30
0.0
 40
1786.15108570694
100
AcDbArc
 50
269.9753941529004
 51
270.1958063889001
  0
ARC
  5
60A
330
2
100
AcDbEntity
  8
0
  6
Continuous
 62
     7
100
AcDbCircle
 10
-78.92371046309699
 20
1726.661498769251
 30
0.0
 40
1786.15108570694
100
AcDbArc
 50
269.8041936108003
 51
270.0246065738995
  0
ARC
  5
60B
330
2
100
AcDbEntity
  8
0
  6
Continuous
 62
     7
100
AcDbCircle
 10
-64.881608262877
 20
-50.33927725002822
 30
0.0
 40
1.200000000299999
100
AcDbArc
 50
0.0
 51
90.0
  0
ARC
  5
60C
330
2
100
AcDbEntity
  8
0
  6
Continuous
 62
     7
100
AcDbCircle
 10
-71.43160826419699
 20
-50.33927725002822
 30
0.0
 40
1.200000000299999
100
AcDbArc
 50
90.0
 51
180.0
  0
ARC
  5
60D
330
2
100
AcDbEntity
  8
0
  6
Continuous
 62
     7
100
AcDbCircle
 10
-71.43160826419699
 20
-51.09927724894823
 30
0.0
 40
1.200000000299999
100
AcDbArc
 50
180.0
 51
270.0
  0
ARC
  5
60E
330
2
100
AcDbEntity
  8
0
  6
Continuous
 62
     7
100
AcDbCircle
 10
-64.881608262877
 20
-51.09927724894823
 30
0.0
 40
1.200000000299999
100
AcDbArc
 50
270.0
 51
0.0
  0
CIRCLE
  5
60F
330
2
100
AcDbEntity
  8
0
  6
Continuous
 62
     5
100
AcDbCircle
 10
-47.45660826407699
 20
-48.91927725030822
 30
0.0
 40
0.9999999989799999
  0
CIRCLE
  5
610
330
2
100
AcDbEntity
  8
0
  6
Continuous
 62
     5
100
AcDbCircle
 10
-88.85660826299698
 20
-48.91927725030822
 30
0.0
 40
0.9999999989799999
  0
ARC
  5
611
330
2
100
AcDbEntity
  8
0
  6
Continuous
 62
     7
100
AcDbCircle
 10
-71.43160826419699
 20
-51.09927724894823
 30
0.0
 40
0.9000000008599998
100
AcDbArc
 50
180.0
 51
270.0
  0
ARC
  5
612
330
2
100
AcDbEntity
  8
0
  6
Continuous
 62
     7
100
AcDbCircle
 10
-71.43160826419699
 20
-50.33927725002822
 30
0.0
 40
0.9000000008599998
100
AcDbArc
 50
90.0
 51
180.0
  0
ARC
  5
613
330
2
100
AcDbEntity
  8
0
  6
Continuous
 62
     7
100
AcDbCircle
 10
-64.881608262877
 20
-50.33927725002822
 30
0.0
 40
0.9000000008599998
100
AcDbArc
 50
0.0
 51
90.0
  0
ARC
  5
614
330
2
100
AcDbEntity
  8
0
  6
Continuous
 62
     7
100
AcDbCircle
 10
-64.881608262877
 20
-51.09927724894823
 30
0.0
 40
0.9000000008599998
100
AcDbArc
 50
270.0
 51
0.0
  0
CIRCLE
  5
615
330
2
100
AcDbEntity
  8
0
  6
Continuous
 62
     5
100
AcDbCircle
 10
-49.95660826279699
 20
-54.91927724926822
 30
0.0
 40
0.6500000004800001
  0
CIRCLE
  5
616
330
2
100
AcDbEntity
  8
0
  6
Continuous
 62
     5
100
AcDbCircle
 10
-86.35660826427701
 20
-54.91927724926822
 30
0.0
 40
0.6500000004800001
  0
SPLINE
  5
617
330
2
100
AcDbEntity
  8
0
  6
Continuous
 62
     5
100
AcDbSpline
210
0.0
220
0.0
230
1.0
 70
     8
 71
     3
 72
    25
 73
    21
 74
     0
 42
0.0000000001
 43
0.0000000001
 40
0.0
 40
0.0
 40
0.0
 40
0.0
 40
0.0791926895
 40
0.1497942276
 40
0.2040793124
 40
0.2447043896
 40
0.2778696785
 40
0.3065451953
 40
0.3542813743
 40
0.3937690227
 40
0.4332368339000001
 40
0.4762505138000001
 40
0.5276223965
 40
0.6509198271
 40
0.7147705874
 40
0.7732605992
 40
0.8242902975999999
 40
0.874691257
 40
0.9325344318
 40
1.0
 40
1.0
 40
1.0
 40
1.0
 10
-48.036452898137
 20
8.53561734183178
 30
0.0
 10
-48.036452898137
 20
8.572052671551787
 30
0.0
 10
-48.03138750567701
 20
8.641174346871778
 30
0.0
 10
-48.006146182017
 20
8.732438667771774
 30
0.0
 10
-47.96785274577699
 20
8.799376766051764
 30
0.0
 10
-47.92544130405699
 20
8.84112505187177
 30
0.0
 10
-47.88546405101699
 20
8.866564358371775
 30
0.0
 10
-47.83966711441699
 20
8.887652106391769
 30
0.0
 10
-47.78993181383699
 20
8.907598746711769
 30
0.0
 10
-47.74308304037699
 20
8.943462678031792
 30
0.0
 10
-47.70758720585699
 20
8.987474655031789
 30
0.0
 10
-47.67922562681699
 20
9.042530176111753
 30
0.0
 10
-47.64800614645698
 20
9.13792943921176
 30
0.0
 10
-47.62930197253699
 20
9.246761032571768
 30
0.0
 10
-47.623783944457
 20
9.359719610311756
 30
0.0
 10
-47.62672713897699
 20
9.439554276651747
 30
0.0
 10
-47.63745758995699
 20
9.512549086211762
 30
0.0
 10
-47.65810190223699
 20
9.583052442791782
 30
0.0
 10
-47.68813318583698
 20
9.658170534871786
 30
0.0
 10
-47.71202272149699
 20
9.710645540411761
 30
0.0
 10
-47.72491339929699
 20
9.738882103191784
 30
0.0
  0
SPLINE
  5
618
330
2
100
AcDbEntity
  8
0
  6
Continuous
 62
     5
100
AcDbSpline
210
0.0
220
0.0
230
1.0
 70
     8
 71
     3
 72
    23
 73
    19
 74
     0
 42
0.0000000001
 43
0.0000000001
 40
0.0
 40
0.0
 40
0.0
 40
0.0
 40
0.0411807639
 40
0.0738280746
 40
0.1011004716
 40
0.1258408965
 40
0.1740039668
 40
0.2222705698
 40
0.270511138
 40
0.3217421892
 40
0.3787369816
 40
0.4433588121
 40
0.5896612185
 40
0.6655093576
 40
0.7390005390000001
 40
0.8073439200999999
 40
0.8710955970999998
 40
1.0
 40
1.0
 40
1.0
 40
1.0
 10
-47.49053855689699
 20
8.53561734183178
 30
0.0
 10
-47.49053855689699
 20
8.55594169539178
 30
0.0
 10
-47.488207812257
 20
8.592512620471765
 30
0.0
 10
-47.474858202177
 20
8.64106511417178
 30
0.0
 10
-47.45342692677699
 20
8.677539740231779
 30
0.0
 10
-47.417391738497
 20
8.712211032331779
 30
0.0
 10
-47.362951720377
 20
8.738545333231783
 30
0.0
 10
-47.29680338429699
 20
8.765619663131772
 30
0.0
 10
-47.23831772783699
 20
8.810846986951744
 30
0.0
 10
-47.18990914799699
 20
8.871720591391763
 30
0.0
 10
-47.15067014595699
 20
8.947966512051763
 30
0.0
 10
-47.10821339317699
 20
9.073507119491765
 30
0.0
 10
-47.08462464431699
 20
9.214043160491783
 30
0.0
 10
-47.077436423997
 20
9.359854131251765
 30
0.0
 10
-47.08164706581699
 20
9.467389422911779
 30
0.0
 10
-47.096663985237
 20
9.568001812491772
 30
0.0
 10
-47.132280573897
 20
9.692131988411759
 30
0.0
 10
-47.17184421587699
 20
9.778911997731782
 30
0.0
 10
-47.198265026637
 20
9.836785818991771
 30
0.0
  0
SPLINE
  5
619
330
2
100
AcDbEntity
  8
0
  6
Continuous
 62
     5
100
AcDbSpline
210
0.0
220
0.0
230
1.0
 70
     8
 71
     3
 72
    23
 73
    19
 74
     0
 42
0.0000000001
 43
0.0000000001
 40
0.0
 40
0.0
 40
0.0
 40
0.0
 40
0.1289044029
 40
0.1926560799
 40
0.260999461
 40
0.3344906424
 40
0.4103387815
 40
0.5566411879
 40
0.6212630184000001
 40
0.6782578108
 40
0.7294888620000001
 40
0.7777294302
 40
0.8259960331999998
 40
0.8741591034999999
 40
0.8988995283999999
 40
0.9261719254
 40
0.9588192360999999
 40
1.0
 40
1.0
 40
1.0
 40
1.0
 10
-89.114951500437
 20
9.836785818991771
 30
0.0
 10
-89.14137231119699
 20
9.778911997731782
 30
0.0
 10
-89.18093595317699
 20
9.692131988411759
 30
0.0
 10
-89.21655253929699
 20
9.568001812491772
 30
0.0
 10
-89.23156946125699
 20
9.467389422911779
 30
0.0
 10
-89.23578010307698
 20
9.359854131251765
 30
0.0
 10
-89.22859188275699
 20
9.214043160491783
 30
0.0
 10
-89.205003133897
 20
9.073507119491765
 30
0.0
 10
-89.162546381117
 20
8.947966512051763
 30
0.0
 10
-89.123307379077
 20
8.871720591391763
 30
0.0
 10
-89.074898799237
 20
8.810846986951744
 30
0.0
 10
-89.016413142777
 20
8.765619663131772
 30
0.0
 10
-88.95026480669699
 20
8.738545333231783
 30
0.0
 10
-88.89582478857699
 20
8.712211032331779
 30
0.0
 10
-88.85978960029699
 20
8.677539740231779
 30
0.0
 10
-88.83835832489699
 20
8.64106511417178
 30
0.0
 10
-88.82500871481699
 20
8.592512620471765
 30
0.0
 10
-88.822677970177
 20
8.55594169539178
 30
0.0
 10
-88.822677970177
 20
8.53561734183178
 30
0.0
  0
SPLINE
  5
61A
330
2
100
AcDbEntity
  8
0
  6
Continuous
 62
     5
100
AcDbSpline
210
0.0
220
0.0
230
1.0
 70
     8
 71
     3
 72
    25
 73
    21
 74
     0
 42
0.0000000001
 43
0.0000000001
 40
0.0
 40
0.0
 40
0.0
 40
0.0
 40
0.0674655682
 40
0.125308743
 40
0.1757097024
 40
0.2267394008
 40
0.2852294126
 40
0.3490801729
 40
0.4723776035000001
 40
0.5237494862
 40
0.5667631661
 40
0.6062309773
 40
0.6457186257
 40
0.6934548047
 40
0.7221303215
 40
0.7552956104000001
 40
0.7959206876
 40
0.8502057724
 40
0.9208073105
 40
1.0
 40
1.0
 40
1.0
 40
1.0
 10
-88.58830312777699
 20
9.738882103191784
 30
0.0
 10
-88.601193805577
 20
9.710645540411761
 30
0.0
 10
-88.62508333869699
 20
9.658170534871786
 30
0.0
 10
-88.655114624837
 20
9.583052442791782
 30
0.0
 10
-88.675758937117
 20
9.512549086211762
 30
0.0
 10
-88.68648938809698
 20
9.439554276651747
 30
0.0
 10
-88.68943258261699
 20
9.359719610311756
 30
0.0
 10
-88.683914554537
 20
9.246761032571768
 30
0.0
 10
-88.665210380617
 20
9.13792943921176
 30
0.0
 10
-88.633990900257
 20
9.042530176111753
 30
0.0
 10
-88.605629321217
 20
8.987474655031789
 30
0.0
 10
-88.57013348669699
 20
8.943462678031792
 30
0.0
 10
-88.523284710697
 20
8.907598746711769
 30
0.0
 10
-88.47354941265699
 20
8.887652106391769
 30
0.0
 10
-88.42775247605699
 20
8.866564358371775
 30
0.0
 10
-88.387775223017
 20
8.84112505187177
 30
0.0
 10
-88.34536378129699
 20
8.799376766051764
 30
0.0
 10
-88.30707034505698
 20
8.732438667771774
 30
0.0
 10
-88.281829018857
 20
8.641174346871778
 30
0.0
 10
-88.27676362893699
 20
8.572052671551787
 30
0.0
 10
-88.27676362893699
 20
8.53561734183178
 30
0.0
  0
SPLINE
  5
61B
330
2
100
AcDbEntity
  8
0
  6
Continuous
 62
     5
100
AcDbSpline
210
0.0
220
0.0
230
1.0
 70
     8
 71
     3
 72
    23
 73
    19
 74
     0
 42
0.0000000001
 43
0.0000000001
 40
0.0
 40
0.0
 40
0.0
 40
0.0
 40
0.0411807639
 40
0.0738280746
 40
0.1011004716
 40
0.1258408965
 40
0.1740039668
 40
0.2222705698
 40
0.270511138
 40
0.3217421892
 40
0.3787369816
 40
0.4433588121
 40
0.5896612185
 40
0.6655093576
 40
0.7390005390000001
 40
0.8073439200999999
 40
0.8710955970999998
 40
1.0
 40
1.0
 40
1.0
 40
1.0
 10
-88.35625151669701
 20
8.53561734183178
 30
0.0
 10
-88.35625151669701
 20
8.55594169539178
 30
0.0
 10
-88.358582261337
 20
8.592512620471765
 30
0.0
 10
-88.37193187141698
 20
8.64106511417178
 30
0.0
 10
-88.393363146817
 20
8.677539740231779
 30
0.0
 10
-88.42939833509699
 20
8.712211032331779
 30
0.0
 10
-88.48383835321699
 20
8.738545333231783
 30
0.0
 10
-88.54998668929699
 20
8.765619663131772
 30
0.0
 10
-88.60847234575699
 20
8.810846986951744
 30
0.0
 10
-88.65688092559699
 20
8.871720591391763
 30
0.0
 10
-88.69611992763699
 20
8.947966512051763
 30
0.0
 10
-88.73857668041699
 20
9.073507119491765
 30
0.0
 10
-88.76216542927698
 20
9.214043160491783
 30
0.0
 10
-88.76935364959699
 20
9.359854131251765
 30
0.0
 10
-88.76514300777699
 20
9.467389422911779
 30
0.0
 10
-88.75012608835699
 20
9.568001812491772
 30
0.0
 10
-88.714509499697
 20
9.692131988411759
 30
0.0
 10
-88.674945857717
 20
9.778911997731782
 30
0.0
 10
-88.64852504695699
 20
9.836785818991771
 30
0.0
  0
SPLINE
  5
61C
330
2
100
AcDbEntity
  8
0
  6
Continuous
 62
     5
100
AcDbSpline
210
0.0
220
0.0
230
1.0
 70
     8
 71
     3
 72
    23
 73
    19
 74
     0
 42
0.0000000001
 43
0.0000000001
 40
0.0
 40
0.0
 40
0.0
 40
0.0
 40
0.1289044029
 40
0.1926560799
 40
0.260999461
 40
0.3344906424
 40
0.4103387815
 40
0.5566411879
 40
0.6212630184000001
 40
0.6782578108
 40
0.7294888620000001
 40
0.7777294302
 40
0.8259960331999998
 40
0.8741591034999999
 40
0.8988995283999999
 40
0.9261719254
 40
0.9588192360999999
 40
1.0
 40
1.0
 40
1.0
 40
1.0
 10
-47.664691480117
 20
9.836785818991771
 30
0.0
 10
-47.63827066935699
 20
9.778911997731782
 30
0.0
 10
-47.59870702737699
 20
9.692131988411759
 30
0.0
 10
-47.56309043871699
 20
9.568001812491772
 30
0.0
 10
-47.54807351929699
 20
9.467389422911779
 30
0.0
 10
-47.54386287747699
 20
9.359854131251765
 30
0.0
 10
-47.551051097797
 20
9.214043160491783
 30
0.0
 10
-47.57463984665699
 20
9.073507119491765
 30
0.0
 10
-47.61709659943699
 20
8.947966512051763
 30
0.0
 10
-47.656335601477
 20
8.871720591391763
 30
0.0
 10
-47.70474418131699
 20
8.810846986951744
 30
0.0
 10
-47.763229835237
 20
8.765619663131772
 30
0.0
 10
-47.829378173857
 20
8.738545333231783
 30
0.0
 10
-47.883818191977
 20
8.712211032331779
 30
0.0
 10
-47.919853380257
 20
8.677539740231779
 30
0.0
 10
-47.94128465565699
 20
8.64106511417178
 30
0.0
 10
-47.95463426319699
 20
8.592512620471765
 30
0.0
 10
-47.95696500783699
 20
8.55594169539178
 30
0.0
 10
-47.95696500783699
 20
8.53561734183178
 30
0.0
  0
LINE
  5
61D
330
2
100
AcDbEntity
  8
0
  6
Continuous
 62
     7
100
AcDbLine
 10
-85.02781379461699
 20
3.137109670491781
 30
0.0
 11
-85.02118780075699
 21
4.137109672011789
 31
0.0
  0
LINE
  5
61E
330
2
100
AcDbEntity
  8
0
  6
Continuous
 62
     7
100
AcDbLine
 10
-51.28540273245699
 20
3.137109670491781
 30
0.0
 11
-51.292028723777
 21
4.137109672011789
 31
0.0
  0
SPLINE
  5
61F
330
2
100
AcDbEntity
  8
0
  6
Continuous
 62
     7
100
AcDbSpline
210
0.0
220
0.0
230
1.0
 70
     8
 71
     3
 72
    34
 73
    30
 74
     0
 42
0.0000000001
 43
0.0000000001
 40
0.0
 40
0.0
 40
0.0
 40
0.0
 40
0.0740191059
 40
0.1515772285
 40
0.2201563929
 40
0.2802139383
 40
0.3334469083
 40
0.3815173965
 40
0.4249616732
 40
0.4638939803000001
 40
0.4985425356000001
 40
0.5296750959000001
 40
0.5582216372
 40
0.5851234575000001
 40
0.6113474772
 40
0.6374945397000001
 40
0.6633717047
 40
0.6892727964000001
 40
0.7161104800000001
 40
0.7442717927000001
 40
0.7734545353
 40
0.8032527698
 40
0.8332631102
 40
0.8630290095999999
 40
0.8920563587
 40
0.9198417963999999
 40
0.9465906394999999
 40
0.9730182509
 40
1.0
 40
1.0
 40
1.0
 40
1.0
 10
-41.15660826313699
 20
70.01797621329178
 30
0.0
 10
-41.249780098637
 20
69.71779548269177
 30
0.0
 10
-41.47490371747699
 20
69.11357806781177
 30
0.0
 10
-41.89959454703699
 20
68.27810657137177
 30
0.0
 10
-42.37927492117698
 20
67.54274109011176
 30
0.0
 10
-42.861577982477
 20
66.93728795507176
 30
0.0
 10
-43.33280962319699
 20
66.43694727173176
 30
0.0
 10
-43.787218986157
 20
66.01989803979176
 30
0.0
 10
-44.22059329085699
 20
65.67169505573177
 30
0.0
 10
-44.62733853781699
 20
65.38220057249178
 30
0.0
 10
-45.004455858257
 20
65.14188503839178
 30
0.0
 10
-45.35376339433699
 20
64.94083508489175
 30
0.0
 10
-45.681433155557
 20
64.76970631615178
 30
0.0
 10
-45.99563299959699
 20
64.62092886923177
 30
0.0
 10
-46.304532849157
 20
64.48948327487177
 30
0.0
 10
-46.61223150731699
 20
64.37378045319177
 30
0.0
 10
-46.92520255523699
 20
64.27181514785179
 30
0.0
 10
-47.249502721977
 20
64.17923314607175
 30
0.0
 10
-47.58768289651699
 20
64.09429028827175
 30
0.0
 10
-47.94260783563699
 20
64.01720612951179
 30
0.0
 10
-48.31296330777699
 20
63.94931642785177
 30
0.0
 10
-48.694308138177
 20
63.89214187367177
 30
0.0
 10
-49.08151802415699
 20
63.84598691645179
 30
0.0
 10
-49.468293092617
 20
63.81053050273177
 30
0.0
 10
-49.848038459617
 20
63.78471406465177
 30
0.0
 10
-50.217491812657
 20
63.76669201789177
 30
0.0
 10
-50.57721091541699
 20
63.75433405937177
 30
0.0
 10
-50.934296777317
 20
63.74661949771176
 30
0.0
 10
-51.172172194377
 20
63.74422550453177
 30
0.0
 10
-51.292028739017
 20
63.74384825865177
 30
0.0
  0
SPLINE
  5
620
330
2
100
AcDbEntity
  8
0
  6
Continuous
 62
     7
100
AcDbSpline
210
0.0
220
0.0
230
1.0
 70
     8
 71
     3
 72
    34
 73
    30
 74
     0
 42
0.0000000001
 43
0.0000000001
 40
0.0
 40
0.0
 40
0.0
 40
0.0
 40
0.0269817494
 40
0.0534093607
 40
0.0801582039
 40
0.1079436415
 40
0.1369709906
 40
0.1667368901
 40
0.1967472304
 40
0.2265454649
 40
0.2557282076
 40
0.2838895202
 40
0.3107272038
 40
0.3366282954
 40
0.3625054605
 40
0.388652523
 40
0.4148765427
 40
0.4417783629
 40
0.4703249042000001
 40
0.5014574645000001
 40
0.5361060198
 40
0.5750383269000001
 40
0.6184826036
 40
0.6665530917
 40
0.7197860618
 40
0.7798436071
 40
0.8484227715999999
 40
0.9259808940999999
 40
1.0
 40
1.0
 40
1.0
 40
1.0
 10
-85.02118778297699
 20
63.74384825865177
 30
0.0
 10
-85.14104433015701
 20
63.74422550453177
 30
0.0
 10
-85.378919747217
 20
63.74661949771176
 30
0.0
 10
-85.73600561165699
 20
63.75433405937177
 30
0.0
 10
-86.09572471441699
 20
63.76669201789177
 30
0.0
 10
-86.46517806745698
 20
63.78471406465177
 30
0.0
 10
-86.844923434457
 20
63.81053050273177
 30
0.0
 10
-87.231698502917
 20
63.84598691645179
 30
0.0
 10
-87.618908388897
 20
63.89214187367177
 30
0.0
 10
-88.000253219297
 20
63.94931642785177
 30
0.0
 10
-88.37060869143698
 20
64.01720612951179
 30
0.0
 10
-88.72553363055699
 20
64.09429028827175
 30
0.0
 10
-89.063713805097
 20
64.17923314607175
 30
0.0
 10
-89.388013971837
 20
64.27181514785179
 30
0.0
 10
-89.70098501721698
 20
64.37378045319177
 30
0.0
 10
-90.00868367791699
 20
64.48948327487177
 30
0.0
 10
-90.31758352747699
 20
64.62092886923177
 30
0.0
 10
-90.63178336897699
 20
64.76970631615178
 30
0.0
 10
-90.959453132737
 20
64.94083508489175
 30
0.0
 10
-91.308760668817
 20
65.14188503839178
 30
0.0
 10
-91.68587798925699
 20
65.38220057249178
 30
0.0
 10
-92.09262323621699
 20
65.67169505573177
 30
0.0
 10
-92.52599753837699
 20
66.01989803979176
 30
0.0
 10
-92.98040690387699
 20
66.43694727173176
 30
0.0
 10
-93.45163854459698
 20
66.93728795507176
 30
0.0
 10
-93.93394160589698
 20
67.54274109011176
 30
0.0
 10
-94.413621980037
 20
68.27810657137177
 30
0.0
 10
-94.838312809597
 20
69.11357806781177
 30
0.0
 10
-95.06343642589699
 20
69.71779548269177
 30
0.0
 10
-95.15660826393698
 20
70.01797621329178
 30
0.0
  0
SPLINE
  5
621
330
2
100
AcDbEntity
  8
0
  6
Continuous
 62
     7
100
AcDbSpline
210
0.0
220
0.0
230
1.0
 70
     8
 71
     3
 72
    23
 73
    19
 74
     0
 42
0.0000000001
 43
0.0000000001
 40
0.0
 40
0.0
 40
0.0
 40
0.0
 40
0.1110851296
 40
0.2275361093
 40
0.3310415658
 40
0.4222542764
 40
0.5032499915999999
 40
0.5761167841
 40
0.6416170995
 40
0.7000285779000001
 40
0.7518381398000001
 40
0.7983168712000001
 40
0.8409166231
 40
0.8811053236000001
 40
0.9203932884999998
 40
0.9596077733999999
 40
0.9984649978
 40
1.0
 40
1.0
 40
1.0
 40
1.0
 10
-95.15660826393698
 20
74.98954017667177
 30
0.0
 10
-95.06343372841699
 20
75.2897299064918
 30
0.0
 10
-94.83824889303699
 20
75.89411073735181
 30
0.0
 10
-94.41269273881699
 20
76.73121505755176
 30
0.0
 10
-93.93006817701699
 20
77.4705350724318
 30
0.0
 10
-93.44211546991699
 20
78.08160637505176
 30
0.0
 10
-92.96405778747699
 20
78.58695363969179
 30
0.0
 10
-92.50388048583699
 20
79.00670499475177
 30
0.0
 10
-92.06699624149699
 20
79.35518242327174
 30
0.0
 10
-91.65893993543699
 20
79.64339768631174
 30
0.0
 10
-91.28204572605699
 20
79.88174054465173
 30
0.0
 10
-90.93373656745699
 20
80.08071760415175
 30
0.0
 10
-90.60729018199699
 20
80.24994532005178
 30
0.0
 10
-90.293985494917
 20
80.3971452313918
 30
0.0
 10
-89.985587435057
 20
80.52725930949174
 30
0.0
 10
-89.677761185077
 20
80.64182470647176
 30
0.0
 10
-89.46425624505698
 20
80.71064897573178
 30
0.0
 10
-89.354436058297
 20
80.74376505123177
 30
0.0
 10
-89.35026052181699
 20
80.74502093645179
 30
0.0
  0
SPLINE
  5
622
330
2
100
AcDbEntity
  8
0
  6
Continuous
 62
     7
100
AcDbSpline
210
0.0
220
0.0
230
1.0
 70
     8
 71
     3
 72
    16
 73
    12
 74
     0
 42
0.0000000001
 43
0.0000000001
 40
0.0
 40
0.0
 40
0.0
 40
0.0
 40
0.1135609031
 40
0.2293411146
 40
0.3458572962
 40
0.4615643475000001
 40
0.5747881892
 40
0.6838064059000001
 40
0.7893074323000001
 40
0.8937126755999999
 40
1.0
 40
1.0
 40
1.0
 40
1.0
 10
-88.35080910187699
 20
80.99219936513179
 30
0.0
 10
-88.228715249037
 20
81.01640821689176
 30
0.0
 10
-87.98115893693699
 20
81.06130574203177
 30
0.0
 10
-87.60476787615699
 20
81.11720712121178
 30
0.0
 10
-87.22277090329699
 20
81.16241637547176
 30
0.0
 10
-86.840771078017
 20
81.19728085743179
 30
0.0
 10
-86.464450936577
 20
81.2228293229718
 30
0.0
 10
-86.09658786991699
 20
81.24078787227176
 30
0.0
 10
-85.73686046389699
 20
81.25316256685175
 30
0.0
 10
-85.37927034087699
 20
81.2608944868718
 30
0.0
 10
-85.141044853397
 20
81.26329191921177
 30
0.0
 10
-85.02118281981699
 20
81.26366918033175
 30
0.0
  0
SPLINE
  5
623
330
2
100
AcDbEntity
  8
0
  6
Continuous
 62
     7
100
AcDbSpline
210
0.0
220
0.0
230
1.0
 70
     8
 71
     3
 72
    16
 73
    12
 74
     0
 42
0.0000000001
 43
0.0000000001
 40
0.0
 40
0.0
 40
0.0
 40
0.0
 40
0.1062873303
 40
0.210692573
 40
0.3161935986
 40
0.4252118146
 40
0.5384356556000001
 40
0.6541427061000001
 40
0.7706588868999999
 40
0.8864390976000001
 40
1.0
 40
1.0
 40
1.0
 40
1.0
 10
-51.29203372757699
 20
81.26366918287175
 30
0.0
 10
-51.17217168891698
 20
81.26329191921177
 30
0.0
 10
-50.93394619381699
 20
81.2608944868718
 30
0.0
 10
-50.57635606063699
 20
81.25316256685175
 30
0.0
 10
-50.216628657157
 20
81.24078787227176
 30
0.0
 10
-49.84876559049699
 20
81.2228293229718
 30
0.0
 10
-49.47244544651699
 20
81.19728085743179
 30
0.0
 10
-49.090445623777
 20
81.16241637547176
 30
0.0
 10
-48.708448650917
 20
81.11720712121178
 30
0.0
 10
-48.33205759013701
 20
81.06130574203177
 30
0.0
 10
-48.08450127803699
 20
81.01640821689176
 30
0.0
 10
-47.96240742519699
 20
80.99219936513179
 30
0.0
  0
SPLINE
  5
624
330
2
100
AcDbEntity
  8
0
  6
Continuous
 62
     7
100
AcDbSpline
210
0.0
220
0.0
230
1.0
 70
     8
 71
     3
 72
    23
 73
    19
 74
     0
 42
0.0000000001
 43
0.0000000001
 40
0.0
 40
0.0
 40
0.0
 40
0.0
 40
0.0015349842
 40
0.0403922093
 40
0.0796066949
 40
0.1188946605
 40
0.1590833618
 40
0.2016831144
 40
0.2481618467
 40
0.2999714095
 40
0.358382889
 40
0.4238832055
 40
0.4967499994
 40
0.577745716
 40
0.6689584283
 40
0.7724638866
 40
0.8889148684
 40
1.0
 40
1.0
 40
1.0
 40
1.0
 10
-46.962955857937
 20
80.74502089327177
 30
0.0
 10
-46.958780369717
 20
80.74376502075176
 30
0.0
 10
-46.84896023121699
 20
80.71064896049177
 30
0.0
 10
-46.635455339457
 20
80.64182470647176
 30
0.0
 10
-46.32762909201699
 20
80.52725930949174
 30
0.0
 10
-46.01923103215699
 20
80.3971452313918
 30
0.0
 10
-45.705926345077
 20
80.24994532005178
 30
0.0
 10
-45.379479959617
 20
80.08071760415175
 30
0.0
 10
-45.031170798477
 20
79.88174054465173
 30
0.0
 10
-44.654276591637
 20
79.64339768631174
 30
0.0
 10
-44.24622028557699
 20
79.35518242327174
 30
0.0
 10
-43.80933604123699
 20
79.00670499475177
 30
0.0
 10
-43.34915873705699
 20
78.58695363969179
 30
0.0
 10
-42.87110105715699
 20
78.08160637505176
 30
0.0
 10
-42.383148350057
 20
77.4705350724318
 30
0.0
 10
-41.90052378825699
 20
76.73121505755176
 30
0.0
 10
-41.474967634037
 20
75.89411073735181
 30
0.0
 10
-41.249782796117
 20
75.2897299064918
 30
0.0
 10
-41.15660826313699
 20
74.98954017667177
 30
0.0
  0
SPLINE
  5
625
330
2
100
AcDbEntity
  8
0
  6
Continuous
 62
     7
100
AcDbSpline
210
0.0
220
0.0
230
1.0
 70
     8
 71
     3
 72
    23
 73
    19
 74
     0
 42
0.0000000001
 43
0.0000000001
 40
0.0
 40
0.0
 40
0.0
 40
0.0
 40
0.1289044029
 40
0.1926560799
 40
0.260999461
 40
0.3344906424
 40
0.4103387815
 40
0.5566411879
 40
0.6212630184000001
 40
0.6782578108
 40
0.7294888620000001
 40
0.7777294302
 40
0.8259960331999998
 40
0.8741591034999999
 40
0.8988995283999999
 40
0.9261719254
 40
0.9588192360999999
 40
1.0
 40
1.0
 40
1.0
 40
1.0
 10
-92.27424097813701
 20
120.0729471191517
 30
0.0
 10
-92.247820167377
 20
120.1308209404117
 30
0.0
 10
-92.208256525397
 20
120.2176009471918
 30
0.0
 10
-92.172639939277
 20
120.3417311256517
 30
0.0
 10
-92.15762301731698
 20
120.4423435152317
 30
0.0
 10
-92.15341237549699
 20
120.5498788068918
 30
0.0
 10
-92.160600595817
 20
120.6956897776518
 30
0.0
 10
-92.18418934467699
 20
120.8362258161117
 30
0.0
 10
-92.22664609745699
 20
120.9617664260918
 30
0.0
 10
-92.26588509949699
 20
121.0380123467517
 30
0.0
 10
-92.31429367933699
 20
121.0988859486518
 30
0.0
 10
-92.37277933579699
 20
121.1441132750117
 30
0.0
 10
-92.438927671877
 20
121.1711876049118
 30
0.0
 10
-92.49336768999699
 20
121.1975219058117
 30
0.0
 10
-92.529402878277
 20
121.2321931979118
 30
0.0
 10
-92.55083415367698
 20
121.2686678239718
 30
0.0
 10
-92.564183763757
 20
121.3172203176718
 30
0.0
 10
-92.56651450839699
 20
121.3537912402117
 30
0.0
 10
-92.56651450839699
 20
121.3741155963117
 30
0.0
  0
SPLINE
  5
626
330
2
100
AcDbEntity
  8
0
  6
Continuous
 62
     7
100
AcDbSpline
210
0.0
220
0.0
230
1.0
 70
     8
 71
     3
 72
    25
 73
    21
 74
     0
 42
0.0000000001
 43
0.0000000001
 40
0.0
 40
0.0
 40
0.0
 40
0.0
 40
0.0674655682
 40
0.125308743
 40
0.1757097024
 40
0.2267394008
 40
0.2852294126
 40
0.3490801729
 40
0.4723776035000001
 40
0.5237494862
 40
0.5667631661
 40
0.6062309773
 40
0.6457186257
 40
0.6934548047
 40
0.7221303215
 40
0.7552956104000001
 40
0.7959206876
 40
0.8502057724
 40
0.9208073105
 40
1.0
 40
1.0
 40
1.0
 40
1.0
 10
-92.800889350797
 20
120.1708508349517
 30
0.0
 10
-92.78799867299699
 20
120.1990873951917
 30
0.0
 10
-92.76410913733698
 20
120.2515624007317
 30
0.0
 10
-92.73407785373699
 20
120.3266804928117
 30
0.0
 10
-92.71343354145699
 20
120.3971838519318
 30
0.0
 10
-92.70270309047701
 20
120.4701786614918
 30
0.0
 10
-92.69975989595698
 20
120.5500133278317
 30
0.0
 10
-92.70527792403699
 20
120.6629719055718
 30
0.0
 10
-92.72398209795699
 20
120.7718034989317
 30
0.0
 10
-92.75520157831699
 20
120.8672027620317
 30
0.0
 10
-92.78356315735699
 20
120.9222582805718
 30
0.0
 10
-92.819058991877
 20
120.9662702601117
 30
0.0
 10
-92.86590776787699
 20
121.0021341914317
 30
0.0
 10
-92.915643065917
 20
121.0220808317517
 30
0.0
 10
-92.96144000251699
 20
121.0431685797717
 30
0.0
 10
-93.00141725555699
 20
121.0686078862717
 30
0.0
 10
-93.043828697277
 20
121.1103561720918
 30
0.0
 10
-93.082122133517
 20
121.1772942703717
 30
0.0
 10
-93.10736345971699
 20
121.2685585912717
 30
0.0
 10
-93.112428849637
 20
121.3376802665917
 30
0.0
 10
-93.112428849637
 20
121.3741155963117
 30
0.0
  0
SPLINE
  5
627
330
2
100
AcDbEntity
  8
0
  6
Continuous
 62
     7
100
AcDbSpline
210
0.0
220
0.0
230
1.0
 70
     8
 71
     3
 72
    23
 73
    19
 74
     0
 42
0.0000000001
 43
0.0000000001
 40
0.0
 40
0.0
 40
0.0
 40
0.0
 40
0.0411807639
 40
0.0738280746
 40
0.1011004716
 40
0.1258408965
 40
0.1740039668
 40
0.2222705698
 40
0.270511138
 40
0.3217421892
 40
0.3787369816
 40
0.4433588121
 40
0.5896612185
 40
0.6655093576
 40
0.7390005390000001
 40
0.8073439200999999
 40
0.8710955970999998
 40
1.0
 40
1.0
 40
1.0
 40
1.0
 10
-43.746702018677
 20
121.3741155963117
 30
0.0
 10
-43.746702018677
 20
121.3537912402117
 30
0.0
 10
-43.74903276331699
 20
121.3172203176718
 30
0.0
 10
-43.762382373397
 20
121.2686678239718
 30
0.0
 10
-43.783813646257
 20
121.2321931979118
 30
0.0
 10
-43.81984883707699
 20
121.1975219058117
 30
0.0
 10
-43.87428885519699
 20
121.1711876049118
 30
0.0
 10
-43.940437191277
 20
121.1441132750117
 30
0.0
 10
-43.99892284773699
 20
121.0988859486518
 30
0.0
 10
-44.04733142757699
 20
121.0380123467517
 30
0.0
 10
-44.08657042961699
 20
120.9617664260918
 30
0.0
 10
-44.129027179857
 20
120.8362258161117
 30
0.0
 10
-44.152615931257
 20
120.6956897776518
 30
0.0
 10
-44.15980415157699
 20
120.5498788068918
 30
0.0
 10
-44.155593509757
 20
120.4423435152317
 30
0.0
 10
-44.14057658779699
 20
120.3417311256517
 30
0.0
 10
-44.10496000167698
 20
120.2176009471918
 30
0.0
 10
-44.065396359697
 20
120.1308209404117
 30
0.0
 10
-44.03897554893698
 20
120.0729471191517
 30
0.0
  0
SPLINE
  5
628
330
2
100
AcDbEntity
  8
0
  6
Continuous
 62
     7
100
AcDbSpline
210
0.0
220
0.0
230
1.0
 70
     8
 71
     3
 72
    25
 73
    21
 74
     0
 42
0.0000000001
 43
0.0000000001
 40
0.0
 40
0.0
 40
0.0
 40
0.0
 40
0.0791926895
 40
0.1497942276
 40
0.2040793124
 40
0.2447043896
 40
0.2778696785
 40
0.3065451953
 40
0.3542813743
 40
0.3937690227
 40
0.4332368339000001
 40
0.4762505138000001
 40
0.5276223965
 40
0.6509198271
 40
0.7147705874
 40
0.7732605992
 40
0.8242902975999999
 40
0.874691257
 40
0.9325344318
 40
1.0
 40
1.0
 40
1.0
 40
1.0
 10
-43.20078767743699
 20
121.3741155963117
 30
0.0
 10
-43.20078767743699
 20
121.3376802665917
 30
0.0
 10
-43.205853067357
 20
121.2685585912717
 30
0.0
 10
-43.23109439355699
 20
121.1772942703717
 30
0.0
 10
-43.26938782979699
 20
121.1103561720918
 30
0.0
 10
-43.31179927151699
 20
121.0686078862717
 30
0.0
 10
-43.35177652455699
 20
121.0431685797717
 30
0.0
 10
-43.39757346115699
 20
121.0220808317517
 30
0.0
 10
-43.447308759197
 20
121.0021341914317
 30
0.0
 10
-43.494157532657
 20
120.9662702601117
 30
0.0
 10
-43.52965336971699
 20
120.9222582805718
 30
0.0
 10
-43.558014946217
 20
120.8672027620317
 30
0.0
 10
-43.589234429117
 20
120.7718034989317
 30
0.0
 10
-43.607938603037
 20
120.6629719055718
 30
0.0
 10
-43.613456628577
 20
120.5500133278317
 30
0.0
 10
-43.610513436597
 20
120.4701786614918
 30
0.0
 10
-43.59978298561701
 20
120.3971838519318
 30
0.0
 10
-43.57913867333699
 20
120.3266804928117
 30
0.0
 10
-43.54910738719699
 20
120.2515624007317
 30
0.0
 10
-43.52521785407698
 20
120.1990873951917
 30
0.0
 10
-43.512327173737
 20
120.1708508349517
 30
0.0
  0
LINE
  5
629
330
2
100
AcDbEntity
  8
0
  6
Continuous
 62
     7
100
AcDbLine
 10
-51.285407027597
 20
126.7726232651117
 30
0.0
 11
-51.292033755517
 21
125.7726232661317
 31
0.0
  0
LINE
  5
62A
330
2
100
AcDbEntity
  8
0
  6
Continuous
 62
     7
100
AcDbLine
 10
-85.02780952233699
 20
126.7726232651117
 30
0.0
 11
-85.02118279441701
 21
125.7726232661317
 31
0.0
  0
SPLINE
  5
62B
330
2
100
AcDbEntity
  8
0
  6
Continuous
 62
     7
100
AcDbSpline
210
0.0
220
0.0
230
1.0
 70
     8
 71
     3
 72
    23
 73
    19
 74
     0
 42
0.0000000001
 43
0.0000000001
 40
0.0
 40
0.0
 40
0.0
 40
0.0
 40
0.1289044029
 40
0.1926560799
 40
0.260999461
 40
0.3344906424
 40
0.4103387815
 40
0.5566411879
 40
0.6212630184000001
 40
0.6782578108
 40
0.7294888620000001
 40
0.7777294302
 40
0.8259960331999998
 40
0.8741591034999999
 40
0.8988995283999999
 40
0.9261719254
 40
0.9588192360999999
 40
1.0
 40
1.0
 40
1.0
 40
1.0
 10
-43.57254909545699
 20
120.0729471191517
 30
0.0
 10
-43.59896990621699
 20
120.1308209404117
 30
0.0
 10
-43.63853354819698
 20
120.2176009471918
 30
0.0
 10
-43.67415013431698
 20
120.3417311256517
 30
0.0
 10
-43.68916705627699
 20
120.4423435152317
 30
0.0
 10
-43.69337769809699
 20
120.5498788068918
 30
0.0
 10
-43.68618947777699
 20
120.6956897776518
 30
0.0
 10
-43.662600728917
 20
120.8362258161117
 30
0.0
 10
-43.620143976137
 20
120.9617664260918
 30
0.0
 10
-43.58090497409699
 20
121.0380123467517
 30
0.0
 10
-43.53249639425699
 20
121.0988859486518
 30
0.0
 10
-43.47401073779699
 20
121.1441132750117
 30
0.0
 10
-43.40786240171699
 20
121.1711876049118
 30
0.0
 10
-43.35342238359699
 20
121.1975219058117
 30
0.0
 10
-43.31738719531699
 20
121.2321931979118
 30
0.0
 10
-43.295955919917
 20
121.2686678239718
 30
0.0
 10
-43.28260630983699
 20
121.3172203176718
 30
0.0
 10
-43.28027556519699
 20
121.3537912402117
 30
0.0
 10
-43.28027556519699
 20
121.3741155963117
 30
0.0
  0
SPLINE
  5
62C
330
2
100
AcDbEntity
  8
0
  6
Continuous
 62
     7
100
AcDbSpline
210
0.0
220
0.0
230
1.0
 70
     8
 71
     3
 72
    23
 73
    19
 74
     0
 42
0.0000000001
 43
0.0000000001
 40
0.0
 40
0.0
 40
0.0
 40
0.0
 40
0.0411807639
 40
0.0738280746
 40
0.1011004716
 40
0.1258408965
 40
0.1740039668
 40
0.2222705698
 40
0.270511138
 40
0.3217421892
 40
0.3787369816
 40
0.4433588121
 40
0.5896612185
 40
0.6655093576
 40
0.7390005390000001
 40
0.8073439200999999
 40
0.8710955970999998
 40
1.0
 40
1.0
 40
1.0
 40
1.0
 10
-93.03294095933699
 20
121.3741155963117
 30
0.0
 10
-93.03294095933699
 20
121.3537912402117
 30
0.0
 10
-93.03061021723699
 20
121.3172203176718
 30
0.0
 10
-93.01726060715699
 20
121.2686678239718
 30
0.0
 10
-92.99582933175699
 20
121.2321931979118
 30
0.0
 10
-92.959794143477
 20
121.1975219058117
 30
0.0
 10
-92.905354125357
 20
121.1711876049118
 30
0.0
 10
-92.839205789277
 20
121.1441132750117
 30
0.0
 10
-92.78072013281699
 20
121.0988859486518
 30
0.0
 10
-92.73231155297699
 20
121.0380123467517
 30
0.0
 10
-92.69307255093698
 20
120.9617664260918
 30
0.0
 10
-92.65061579815698
 20
120.8362258161117
 30
0.0
 10
-92.62702704929699
 20
120.6956897776518
 30
0.0
 10
-92.619838828977
 20
120.5498788068918
 30
0.0
 10
-92.624049470797
 20
120.4423435152317
 30
0.0
 10
-92.63906639021699
 20
120.3417311256517
 30
0.0
 10
-92.67468297887701
 20
120.2176009471918
 30
0.0
 10
-92.71424662085699
 20
120.1308209404117
 30
0.0
 10
-92.740667431617
 20
120.0729471191517
 30
0.0
  0
SPLINE
  5
62D
330
2
100
AcDbEntity
  8
0
  6
Continuous
 62
     7
100
AcDbSpline
210
0.0
220
0.0
230
1.0
 70
     8
 71
     3
 72
    34
 73
    30
 74
     0
 42
0.0000000001
 43
0.0000000001
 40
0.0
 40
0.0
 40
0.0
 40
0.0
 40
0.0740584391
 40
0.1516941931
 40
0.2206994018
 40
0.28150926
 40
0.3355076328
 40
0.3840866005
 40
0.4277544716
 40
0.4666963438
 40
0.5012368381
 40
0.5322233645000001
 40
0.5606238457
 40
0.5874169227000001
 40
0.6136094956
 40
0.6397530807999999
 40
0.6656584868
 40
0.6916317978000001
 40
0.7184751057
 40
0.7464711653000001
 40
0.7753469404000001
 40
0.8047544629999999
 40
0.8343489178
 40
0.8637378581
 40
0.8924960770999998
 40
0.9201860911
 40
0.9469827584
 40
0.9735011029999999
 40
1.0
 40
1.0
 40
1.0
 40
1.0
 10
-41.15660826313699
 20
-53.20505871428821
 30
0.0
 10
-41.249782796117
 20
-53.50524844410823
 30
0.0
 10
-41.474967634037
 20
-54.10962927242822
 30
0.0
 10
-41.90052378825699
 20
-54.94673359516823
 30
0.0
 10
-42.383148350057
 20
-55.68605361004822
 30
0.0
 10
-42.87110105715699
 20
-56.29712491012823
 30
0.0
 10
-43.34915873705699
 20
-56.80247217730822
 30
0.0
 10
-43.80933604123699
 20
-57.22222353236823
 30
0.0
 10
-44.24622028557699
 20
-57.57070096088822
 30
0.0
 10
-44.654276591637
 20
-57.85891622138823
 30
0.0
 10
-45.031170798477
 20
-58.09725908226822
 30
0.0
 10
-45.379479959617
 20
-58.29623613922822
 30
0.0
 10
-45.705926345077
 20
-58.46546385766822
 30
0.0
 10
-46.01923103215699
 20
-58.61266376646821
 30
0.0
 10
-46.32762909201699
 20
-58.74277784710823
 30
0.0
 10
-46.635455339457
 20
-58.85734324408822
 30
0.0
 10
-46.94933153415699
 20
-58.95852263278823
 30
0.0
 10
-47.27440493531699
 20
-59.05044293916822
 30
0.0
 10
-47.61226626111699
 20
-59.13445145034822
 30
0.0
 10
-47.965252783997
 20
-59.21029734132822
 30
0.0
 10
-48.33192071969699
 20
-59.27680395202822
 30
0.0
 10
-48.708448650917
 20
-59.33272565628822
 30
0.0
 10
-49.090445623777
 20
-59.37793491054822
 30
0.0
 10
-49.47244544651699
 20
-59.41279939250822
 30
0.0
 10
-49.84876559049699
 20
-59.43834786058822
 30
0.0
 10
-50.216628657157
 20
-59.45630640988823
 30
0.0
 10
-50.57635606063699
 20
-59.46868110446821
 30
0.0
 10
-50.93173110807699
 20
-59.47636512770821
 30
0.0
 10
-51.167742467397
 20
-59.47876564360823
 30
0.0
 10
-51.285406984417
 20
-59.47916601364822
 30
0.0
  0
SPLINE
  5
62E
330
2
100
AcDbEntity
  8
0
  6
Continuous
 62
     7
100
AcDbSpline
210
0.0
220
0.0
230
1.0
 70
     8
 71
     3
 72
    34
 73
    30
 74
     0
 42
0.0000000001
 43
0.0000000001
 40
0.0
 40
0.0
 40
0.0
 40
0.0
 40
0.0264988961
 40
0.0530172408
 40
0.0798139081
 40
0.1075039221
 40
0.1362621411
 40
0.1656510814
 40
0.1952455363
 40
0.2246530589
 40
0.253528834
 40
0.2815248937
 40
0.3083682016
 40
0.3343415126
 40
0.3602469187
 40
0.3863905038
 40
0.4125830768000001
 40
0.4393761538
 40
0.467776635
 40
0.4987631615
 40
0.5333036558
 40
0.572245528
 40
0.6159133991
 40
0.6644923669000001
 40
0.7184907397
 40
0.779300598
 40
0.8483058068000001
 40
0.9259415607999999
 40
1.0
 40
1.0
 40
1.0
 40
1.0
 10
-85.02780955535699
 20
-59.47916601364822
 30
0.0
 10
-85.14547406729699
 20
-59.47876564360823
 30
0.0
 10
-85.38148542153699
 20
-59.47636512770821
 30
0.0
 10
-85.73686046389699
 20
-59.46868110446821
 30
0.0
 10
-86.09658786991699
 20
-59.45630640988823
 30
0.0
 10
-86.464450936577
 20
-59.43834786058822
 30
0.0
 10
-86.840771078017
 20
-59.41279939250822
 30
0.0
 10
-87.22277090329699
 20
-59.37793491054822
 30
0.0
 10
-87.60476787615699
 20
-59.33272565628822
 30
0.0
 10
-87.98129580737699
 20
-59.27680395202822
 30
0.0
 10
-88.347963743077
 20
-59.21029734132822
 30
0.0
 10
-88.700950265957
 20
-59.13445145034822
 30
0.0
 10
-89.038811591757
 20
-59.05044293916822
 30
0.0
 10
-89.363884992917
 20
-58.95852263278823
 30
0.0
 10
-89.677761185077
 20
-58.85734324408822
 30
0.0
 10
-89.985587435057
 20
-58.74277784710823
 30
0.0
 10
-90.293985494917
 20
-58.61266376646821
 30
0.0
 10
-90.60729018199699
 20
-58.46546385766822
 30
0.0
 10
-90.93373656745699
 20
-58.29623613922822
 30
0.0
 10
-91.28204572605699
 20
-58.09725908226822
 30
0.0
 10
-91.65893993543699
 20
-57.85891622138823
 30
0.0
 10
-92.06699624149699
 20
-57.57070096088822
 30
0.0
 10
-92.50388048583699
 20
-57.22222353236823
 30
0.0
 10
-92.96405778747699
 20
-56.80247217730822
 30
0.0
 10
-93.44211546991699
 20
-56.29712491012823
 30
0.0
 10
-93.93006817701699
 20
-55.68605361004822
 30
0.0
 10
-94.41269273881699
 20
-54.94673359516823
 30
0.0
 10
-94.83824889303699
 20
-54.10962927242822
 30
0.0
 10
-95.06343372841699
 20
-53.50524844410823
 30
0.0
 10
-95.15660826393698
 20
-53.20505871428821
 30
0.0
  0
SPLINE
  5
62F
330
2
100
AcDbEntity
  8
0
  6
Continuous
 62
     7
100
AcDbSpline
210
0.0
220
0.0
230
1.0
 70
     8
 71
     3
 72
    34
 73
    30
 74
     0
 42
0.0000000001
 43
0.0000000001
 40
0.0
 40
0.0
 40
0.0
 40
0.0
 40
0.0740559253
 40
0.1516526277
 40
0.2202659056
 40
0.2803533255000001
 40
0.3336127752
 40
0.3817071752
 40
0.4251730623
 40
0.4641247356
 40
0.4987905262
 40
0.5299385728
 40
0.558499314
 40
0.5854145161
 40
0.6116515804000001
 40
0.6378116493000001
 40
0.6637016865
 40
0.6896156621
 40
0.7164666956
 40
0.7446420166
 40
0.7738392756999999
 40
0.8036523326999999
 40
0.8336776011999999
 40
0.8634583070999999
 40
0.8925000952999999
 40
0.9202993543000001
 40
0.9470615031999999
 40
0.9735022604
 40
1.0
 40
1.0
 40
1.0
 40
1.0
 10
-95.15660826393698
 20
-48.23349475090822
 30
0.0
 10
-95.06343642589699
 20
-47.9333140177682
 30
0.0
 10
-94.838312809597
 20
-47.32909660288822
 30
0.0
 10
-94.413621980037
 20
-46.49362510898821
 30
0.0
 10
-93.93394160589698
 20
-45.75825962772822
 30
0.0
 10
-93.45163854459698
 20
-45.15280649268823
 30
0.0
 10
-92.98040690387699
 20
-44.65246580934823
 30
0.0
 10
-92.52599753837699
 20
-44.23541657486822
 30
0.0
 10
-92.09262323621699
 20
-43.88721359334823
 30
0.0
 10
-91.68587798925699
 20
-43.59771911010823
 30
0.0
 10
-91.308760668817
 20
-43.35740357600821
 30
0.0
 10
-90.959453132737
 20
-43.15635361996821
 30
0.0
 10
-90.63178336897699
 20
-42.98522485376821
 30
0.0
 10
-90.31758352747699
 20
-42.83644740430823
 30
0.0
 10
-90.00868367791699
 20
-42.70500180994821
 30
0.0
 10
-89.70098501721698
 20
-42.58929898826821
 30
0.0
 10
-89.388013971837
 20
-42.48733368546822
 30
0.0
 10
-89.063713805097
 20
-42.39475168114822
 30
0.0
 10
-88.72553363055699
 20
-42.30980882588823
 30
0.0
 10
-88.37060869143698
 20
-42.23272466712822
 30
0.0
 10
-88.000253219297
 20
-42.16483496546821
 30
0.0
 10
-87.618908388897
 20
-42.10766041128823
 30
0.0
 10
-87.231698502917
 20
-42.0615054515282
 30
0.0
 10
-86.844923434457
 20
-42.02604904034823
 30
0.0
 10
-86.46517806745698
 20
-42.00023259972822
 30
0.0
 10
-86.09572471441699
 20
-41.98221055296822
 30
0.0
 10
-85.73600561165699
 20
-41.96985259698822
 30
0.0
 10
-85.38113458403699
 20
-41.96218588384823
 30
0.0
 10
-85.145473066537
 20
-41.95978885028823
 30
0.0
 10
-85.027813776837
 20
-41.95938849802821
 30
0.0
  0
SPLINE
  5
630
330
2
100
AcDbEntity
  8
0
  6
Continuous
 62
     7
100
AcDbSpline
210
0.0
220
0.0
230
1.0
 70
     8
 71
     3
 72
    34
 73
    30
 74
     0
 42
0.0000000001
 43
0.0000000001
 40
0.0
 40
0.0
 40
0.0
 40
0.0
 40
0.0264977395
 40
0.0529384968
 40
0.0797006456
 40
0.1074999046
 40
0.1365416929
 40
0.1663223988
 40
0.1963476672
 40
0.2261607242
 40
0.2553579833
 40
0.2835333044
 40
0.3103843378
 40
0.3362983135
 40
0.3621883506
 40
0.3883484195
 40
0.4145854838
 40
0.4415006859
 40
0.4700614272000001
 40
0.5012094738
 40
0.5358752644
 40
0.5748269376000001
 40
0.6182928248
 40
0.6663872248000001
 40
0.7196466745000001
 40
0.7797340944
 40
0.8483473722999999
 40
0.9259440746999999
 40
1.0
 40
1.0
 40
1.0
 40
1.0
 10
-51.285402747697
 20
-41.95938849802821
 30
0.0
 10
-51.16774346053698
 20
-41.95978885028823
 30
0.0
 10
-50.93208194049699
 20
-41.96218588384823
 30
0.0
 10
-50.57721091541699
 20
-41.96985259698822
 30
0.0
 10
-50.217491812657
 20
-41.98221055296822
 30
0.0
 10
-49.848038459617
 20
-42.00023259972822
 30
0.0
 10
-49.468293092617
 20
-42.02604904034823
 30
0.0
 10
-49.08151802415699
 20
-42.0615054515282
 30
0.0
 10
-48.694308138177
 20
-42.10766041128823
 30
0.0
 10
-48.31296330777699
 20
-42.16483496546821
 30
0.0
 10
-47.94260783563699
 20
-42.23272466712822
 30
0.0
 10
-47.58768289651699
 20
-42.30980882588823
 30
0.0
 10
-47.249502721977
 20
-42.39475168114822
 30
0.0
 10
-46.92520255523699
 20
-42.48733368546822
 30
0.0
 10
-46.61223150731699
 20
-42.58929898826821
 30
0.0
 10
-46.304532849157
 20
-42.70500180994821
 30
0.0
 10
-45.99563299959699
 20
-42.83644740430823
 30
0.0
 10
-45.681433155557
 20
-42.98522485376821
 30
0.0
 10
-45.35376339433699
 20
-43.15635361996821
 30
0.0
 10
-45.004455858257
 20
-43.35740357600821
 30
0.0
 10
-44.62733853781699
 20
-43.59771911010823
 30
0.0
 10
-44.22059329085699
 20
-43.88721359334823
 30
0.0
 10
-43.787218986157
 20
-44.23541657486822
 30
0.0
 10
-43.33280962319699
 20
-44.65246580934823
 30
0.0
 10
-42.861577982477
 20
-45.15280649268823
 30
0.0
 10
-42.37927492117698
 20
-45.75825962772822
 30
0.0
 10
-41.89959454703699
 20
-46.49362510898821
 30
0.0
 10
-41.47490371747699
 20
-47.32909660288822
 30
0.0
 10
-41.249780098637
 20
-47.9333140177682
 30
0.0
 10
-41.15660826313699
 20
-48.23349475090822
 30
0.0
  0
SPLINE
  5
631
330
2
100
AcDbEntity
  8
0
  6
Continuous
 62
     7
100
AcDbSpline
210
0.0
220
0.0
230
1.0
 70
     8
 71
     3
 72
    25
 73
    21
 74
     0
 42
0.0000000001
 43
0.0000000001
 40
0.0
 40
0.0
 40
0.0
 40
0.0
 40
0.0651573004
 40
0.1261671142
 40
0.1855161676
 40
0.2468606346
 40
0.3117527243
 40
0.378745814
 40
0.5108420784000001
 40
0.5724693309000001
 40
0.6306680413
 40
0.6881744564
 40
0.7481055372
 40
0.8122651295999999
 40
0.8443428015
 40
0.8751667321999999
 40
0.90441938
 40
0.9329875870999998
 40
0.9635080928
 40
1.0
 40
1.0
 40
1.0
 40
1.0
 10
27.63012719842301
 20
9.836785818991771
 30
0.0
 10
27.608611069243
 20
9.807335542611767
 30
0.0
 10
27.56697867092298
 20
9.750276741311765
 30
0.0
 10
27.51113496498299
 20
9.662561432871754
 30
0.0
 10
27.46814613808299
 20
9.569826126851765
 30
0.0
 10
27.44356243312301
 20
9.468219789551781
 30
0.0
 10
27.436757216863
 20
9.359802604811775
 30
0.0
 10
27.44837347760303
 20
9.21223302949177
 30
0.0
 10
27.48778542570299
 20
9.069333180671762
 30
0.0
 10
27.55580965846299
 20
8.945098062111767
 30
0.0
 10
27.62005800850297
 20
8.86843547223178
 30
0.0
 10
27.698672095623
 20
8.808133537971784
 30
0.0
 10
27.79137350280301
 20
8.764521809091789
 30
0.0
 10
27.87626322888299
 20
8.742984966211778
 30
0.0
 10
27.944579841043
 20
8.723192798531798
 30
0.0
 10
27.99285060810301
 20
8.70466608679176
 30
0.0
 10
28.035975485023
 20
8.679407069491773
 30
0.0
 10
28.071183588343
 20
8.643531090951753
 30
0.0
 10
28.093915437723
 20
8.593945104271782
 30
0.0
 10
28.09786261804298
 20
8.556044227571774
 30
0.0
 10
28.09786261804298
 20
8.53561734183178
 30
0.0
  0
SPLINE
  5
632
330
2
100
AcDbEntity
  8
0
  6
Continuous
 62
     7
100
AcDbSpline
210
0.0
220
0.0
230
1.0
 70
     8
 71
     3
 72
    25
 73
    21
 74
     0
 42
0.0000000001
 43
0.0000000001
 40
0.0
 40
0.0
 40
0.0
 40
0.0
 40
0.0663405805
 40
0.1219881314
 40
0.1686670965
 40
0.2141917601
 40
0.2655317596
 40
0.3215973439
 40
0.4322797803000001
 40
0.4808758998
 40
0.5245463138000001
 40
0.5686690986000001
 40
0.6174429074000001
 40
0.6468244814000001
 40
0.6805775722
 40
0.7604924121
 40
0.8081616287000001
 40
0.8645920904
 40
0.9302104573999999
 40
1.0
 40
1.0
 40
1.0
 40
1.0
 10
28.01795801280302
 20
9.738882103191784
 30
0.0
 10
27.997415508803
 20
9.710764480991784
 30
0.0
 10
27.95969824362301
 20
9.659007861111788
 30
0.0
 10
27.91183301804297
 20
9.584418109351773
 30
0.0
 10
27.87845773300297
 20
9.513907894771776
 30
0.0
 10
27.86086573110301
 20
9.440134953671773
 30
0.0
 10
27.85611139212303
 20
9.359677238031778
 30
0.0
 10
27.86505565922302
 20
9.245315726851757
 30
0.0
 10
27.89611314346299
 20
9.134908043171762
 30
0.0
 10
27.94620996478299
 20
9.040366286611785
 30
0.0
 10
27.99265766208298
 20
8.985083054531756
 30
0.0
 10
28.05029309164302
 20
8.941558531471784
 30
0.0
 10
28.10879971834298
 20
8.914042825771801
 30
0.0
 10
28.16509178508299
 20
8.89709094959177
 30
0.0
 10
28.23755138362303
 20
8.87770328453179
 30
0.0
 10
28.31910746638302
 20
8.852704208291768
 30
0.0
 10
28.40255708358298
 20
8.802543094491781
 30
0.0
 10
28.46508210966302
 20
8.737103484451765
 30
0.0
 10
28.507961734343
 20
8.64388717609178
 30
0.0
 10
28.51652542816301
 20
8.572250047331763
 30
0.0
 10
28.51652542816301
 20
8.53561734183178
 30
0.0
  0
SPLINE
  5
633
330
2
100
AcDbEntity
  8
0
  6
Continuous
 62
     7
100
AcDbSpline
210
0.0
220
0.0
230
1.0
 70
     8
 71
     3
 72
    17
 73
    13
 74
     0
 42
0.0000000001
 43
0.0000000001
 40
0.0
 40
0.0
 40
0.0
 40
0.0
 40
0.1543769895
 40
0.2725505767
 40
0.3867291575
 40
0.5205210982999999
 40
0.6567781596
 40
0.7201395445000001
 40
0.777687046
 40
0.8308150984999999
 40
0.8835563633999999
 40
1.0
 40
1.0
 40
1.0
 40
1.0
 10
21.73139358316298
 20
9.738882103191784
 30
0.0
 10
21.76112516708299
 20
9.698186893751781
 30
0.0
 10
21.81378322788301
 20
9.626614471491777
 30
0.0
 10
21.87465465554298
 20
9.514416092891778
 30
0.0
 10
21.89527120562302
 20
9.394931937651776
 30
0.0
 10
21.88816715328302
 20
9.268934404531776
 30
0.0
 10
21.86091193728301
 20
9.162705135151767
 30
0.0
 10
21.827636537743
 20
9.085475866191771
 30
0.0
 10
21.79895068960299
 20
9.036213236751777
 30
0.0
 10
21.764933312883
 20
8.994770253851768
 30
0.0
 10
21.709828211003
 20
8.947137095371758
 30
0.0
 10
21.65946278722301
 20
8.921778906311757
 30
0.0
 10
21.62350368210299
 20
8.909446502731768
 30
0.0
  0
SPLINE
  5
634
330
2
100
AcDbEntity
  8
0
  6
Continuous
 62
     7
100
AcDbSpline
210
0.0
220
0.0
230
1.0
 70
     8
 71
     3
 72
    25
 73
    21
 74
     0
 42
0.0000000001
 43
0.0000000001
 40
0.0
 40
0.0
 40
0.0
 40
0.0
 40
0.0651573004
 40
0.1261671142
 40
0.1855161676
 40
0.2468606346
 40
0.3117527243
 40
0.378745814
 40
0.5108420784000001
 40
0.5724693309000001
 40
0.6306680413
 40
0.6881744564
 40
0.7481055372
 40
0.8122651295999999
 40
0.8443428015
 40
0.8751667321999999
 40
0.90441938
 40
0.9329875870999998
 40
0.9635080928
 40
1.0
 40
1.0
 40
1.0
 40
1.0
 10
22.119224395003
 20
9.836785818991771
 30
0.0
 10
22.14074052418299
 20
9.807335542611767
 30
0.0
 10
22.18237292250301
 20
9.750276741311765
 30
0.0
 10
22.23821663098302
 20
9.662561432871754
 30
0.0
 10
22.28120545788299
 20
9.569826126851765
 30
0.0
 10
22.305789162843
 20
9.468219789551781
 30
0.0
 10
22.31259437656301
 20
9.359802604811775
 30
0.0
 10
22.30097811582302
 20
9.21223302949177
 30
0.0
 10
22.26156616772302
 20
9.069333180671762
 30
0.0
 10
22.19354193750298
 20
8.945098062111767
 30
0.0
 10
22.12929358492299
 20
8.86843547223178
 30
0.0
 10
22.05067950034301
 20
8.808133537971784
 30
0.0
 10
21.957978090623
 20
8.764521809091789
 30
0.0
 10
21.87308836708302
 20
8.742984966211778
 30
0.0
 10
21.80477175492298
 20
8.723192798531798
 30
0.0
 10
21.756500985323
 20
8.70466608679176
 30
0.0
 10
21.71337611094298
 20
8.679407069491773
 30
0.0
 10
21.67816800508298
 20
8.643531090951753
 30
0.0
 10
21.65543615824301
 20
8.593945104271782
 30
0.0
 10
21.651488975383
 20
8.556044227571774
 30
0.0
 10
21.651488975383
 20
8.53561734183178
 30
0.0
  0
LINE
  5
635
330
2
100
AcDbEntity
  8
0
  6
Continuous
 62
     7
100
AcDbLine
 10
30.16703501512301
 20
3.137109670491781
 30
0.0
 11
30.16705764906298
 21
4.137109672011789
 31
0.0
  0
SPLINE
  5
636
330
2
100
AcDbEntity
  8
0
  6
Continuous
 62
     7
100
AcDbSpline
210
0.0
220
0.0
230
1.0
 70
     8
 71
     3
 72
    25
 73
    21
 74
     0
 42
0.0000000001
 43
0.0000000001
 40
0.0
 40
0.0
 40
0.0
 40
0.0
 40
0.0364919072
 40
0.0670124129
 40
0.09558062
 40
0.1248332678
 40
0.1556571985
 40
0.1877348704
 40
0.2518944628
 40
0.3118255436
 40
0.3693319586999999
 40
0.4275306691
 40
0.4891579216000001
 40
0.621254186
 40
0.6882472756999999
 40
0.7531393654000001
 40
0.8144838324
 40
0.8738328857999999
 40
0.9348426995999998
 40
1.0
 40
1.0
 40
1.0
 40
1.0
 10
28.38931821496301
 20
8.53561734183178
 30
0.0
 10
28.38931821496301
 20
8.556044227571774
 30
0.0
 10
28.38537103210301
 20
8.593945104271782
 30
0.0
 10
28.36263918272301
 20
8.643531090951753
 30
0.0
 10
28.32743107940299
 20
8.679407069491773
 30
0.0
 10
28.284306202483
 20
8.70466608679176
 30
0.0
 10
28.23603543542301
 20
8.723192798531798
 30
0.0
 10
28.167718823263
 20
8.742984966211778
 30
0.0
 10
28.08282909972302
 20
8.764521809091789
 30
0.0
 10
27.99012769000298
 20
8.808133537971784
 30
0.0
 10
27.911513605423
 20
8.86843547223178
 30
0.0
 10
27.847265252843
 20
8.945098062111767
 30
0.0
 10
27.77924102008301
 20
9.069333180671762
 30
0.0
 10
27.73982907452297
 20
9.21223302949177
 30
0.0
 10
27.72821281378301
 20
9.359802604811775
 30
0.0
 10
27.73501802750299
 20
9.468219789551781
 30
0.0
 10
27.759601732463
 20
9.569826126851765
 30
0.0
 10
27.802590559363
 20
9.662561432871754
 30
0.0
 10
27.85843426530299
 20
9.750276741311765
 30
0.0
 10
27.90006666362301
 20
9.807335542611767
 30
0.0
 10
27.92158279280303
 20
9.836785818991771
 30
0.0
  0
LINE
  5
637
330
2
100
AcDbEntity
  8
0
  6
Continuous
 62
     7
100
AcDbLine
 10
12.647261985143
 20
3.137109670491781
 30
0.0
 11
12.647239544243
 21
4.137109672011789
 31
0.0
  0
SPLINE
  5
638
330
2
100
AcDbEntity
  8
0
  6
Continuous
 62
     7
100
AcDbSpline
210
0.0
220
0.0
230
1.0
 70
     8
 71
     3
 72
    23
 73
    19
 74
     0
 42
0.0000000001
 43
0.0000000001
 40
0.0
 40
0.0
 40
0.0
 40
0.0
 40
0.1049946746
 40
0.1898384138
 40
0.2575090249
 40
0.3111747768
 40
0.3602642126
 40
0.4084246803
 40
0.4608564972
 40
0.5195070822
 40
0.5818502699
 40
0.6449832510000001
 40
0.7053222621
 40
0.7597572903000001
 40
0.8091854684000001
 40
0.8627126601999998
 40
0.9258705878
 40
1.0
 40
1.0
 40
1.0
 40
1.0
 10
21.62258542384301
 20
8.78401214857179
 30
0.0
 10
21.65573076014299
 20
8.815228255811788
 30
0.0
 10
21.729457559603
 20
8.857217064391775
 30
0.0
 10
21.83697255412302
 20
8.886799232811753
 30
0.0
 10
21.92360324954301
 20
8.909820906351782
 30
0.0
 10
21.99061342032299
 20
8.942096711751773
 30
0.0
 10
22.04345908298301
 20
8.981377105631779
 30
0.0
 10
22.08702764456301
 20
9.030113309911754
 30
0.0
 10
22.12196829096298
 20
9.090088168371764
 30
0.0
 10
22.150311505803
 20
9.159948810971783
 30
0.0
 10
22.171255756523
 20
9.237208153531767
 30
0.0
 10
22.18254178424301
 20
9.317210561471782
 30
0.0
 10
22.18375303912301
 20
9.394544168551774
 30
0.0
 10
22.17528257600303
 20
9.465549868551775
 30
0.0
 10
22.155125072503
 20
9.531150245351781
 30
0.0
 10
22.12225025890298
 20
9.595529199651778
 30
0.0
 10
22.07685394380302
 20
9.664789193211774
 30
0.0
 10
22.04181294200301
 20
9.712925385991766
 30
0.0
 10
22.02284917754299
 20
9.738882103191784
 30
0.0
  0
SPLINE
  5
639
330
2
100
AcDbEntity
  8
0
  6
Continuous
 62
     7
100
AcDbSpline
210
0.0
220
0.0
230
1.0
 70
     8
 71
     3
 72
    23
 73
    19
 74
     0
 42
0.0000000001
 43
0.0000000001
 40
0.0
 40
0.0
 40
0.0
 40
0.0
 40
0.1289044029
 40
0.1926560799
 40
0.260999461
 40
0.3344906424
 40
0.4103387815
 40
0.5566411879
 40
0.6212630184000001
 40
0.6782578108
 40
0.7294888620000001
 40
0.7777294302
 40
0.8259960331999998
 40
0.8741591034999999
 40
0.8988995283999999
 40
0.9261719254
 40
0.9588192360999999
 40
1.0
 40
1.0
 40
1.0
 40
1.0
 10
124.3840820569029
 20
9.836785818991771
 30
0.0
 10
124.357661246143
 20
9.778911997731782
 30
0.0
 10
124.3180976041629
 20
9.692131988411759
 30
0.0
 10
124.282481018043
 20
9.568001812491772
 30
0.0
 10
124.267464096083
 20
9.467389422911779
 30
0.0
 10
124.263253454263
 20
9.359854131251765
 30
0.0
 10
124.2704416745829
 20
9.214043160491783
 30
0.0
 10
124.2940304234429
 20
9.073507119491765
 30
0.0
 10
124.336487176223
 20
8.947966512051763
 30
0.0
 10
124.375726178263
 20
8.871720591391763
 30
0.0
 10
124.424134758103
 20
8.810846986951744
 30
0.0
 10
124.4826204145629
 20
8.765619663131772
 30
0.0
 10
124.548768750643
 20
8.738545333231783
 30
0.0
 10
124.603208768763
 20
8.712211032331779
 30
0.0
 10
124.639243957043
 20
8.677539740231779
 30
0.0
 10
124.660675232443
 20
8.64106511417178
 30
0.0
 10
124.674024842523
 20
8.592512620471765
 30
0.0
 10
124.676355587163
 20
8.55594169539178
 30
0.0
 10
124.676355587163
 20
8.53561734183178
 30
0.0
  0
SPLINE
  5
63A
330
2
100
AcDbEntity
  8
0
  6
Continuous
 62
     7
100
AcDbSpline
210
0.0
220
0.0
230
1.0
 70
     8
 71
     3
 72
    25
 73
    21
 74
     0
 42
0.0000000001
 43
0.0000000001
 40
0.0
 40
0.0
 40
0.0
 40
0.0
 40
0.0674655682
 40
0.125308743
 40
0.1757097024
 40
0.2267394008
 40
0.2852294126
 40
0.3490801729
 40
0.4723776035000001
 40
0.5237494862
 40
0.5667631661
 40
0.6062309773
 40
0.6457186257
 40
0.6934548047
 40
0.7221303215
 40
0.7552956104000001
 40
0.7959206876
 40
0.8502057724
 40
0.9208073105
 40
1.0
 40
1.0
 40
1.0
 40
1.0
 10
124.910730429563
 20
9.738882103191784
 30
0.0
 10
124.897839751763
 20
9.710645540411761
 30
0.0
 10
124.873950218643
 20
9.658170534871786
 30
0.0
 10
124.8439189325029
 20
9.583052442791782
 30
0.0
 10
124.823274620223
 20
9.512549086211762
 30
0.0
 10
124.812544169243
 20
9.439554276651747
 30
0.0
 10
124.809600974723
 20
9.359719610311756
 30
0.0
 10
124.815119002803
 20
9.246761032571768
 30
0.0
 10
124.833823176723
 20
9.13792943921176
 30
0.0
 10
124.865042657083
 20
9.042530176111753
 30
0.0
 10
124.893404236123
 20
8.987474655031789
 30
0.0
 10
124.928900070643
 20
8.943462678031792
 30
0.0
 10
124.975748846643
 20
8.907598746711769
 30
0.0
 10
125.025484144683
 20
8.887652106391769
 30
0.0
 10
125.071281081283
 20
8.866564358371775
 30
0.0
 10
125.111258334323
 20
8.84112505187177
 30
0.0
 10
125.153669776043
 20
8.799376766051764
 30
0.0
 10
125.191963212283
 20
8.732438667771774
 30
0.0
 10
125.2172045384829
 20
8.641174346871778
 30
0.0
 10
125.222269928403
 20
8.572052671551787
 30
0.0
 10
125.222269928403
 20
8.53561734183178
 30
0.0
  0
SPLINE
  5
63B
330
2
100
AcDbEntity
  8
0
  6
Continuous
 62
     7
100
AcDbSpline
210
0.0
220
0.0
230
1.0
 70
     8
 71
     3
 72
    23
 73
    19
 74
     0
 42
0.0000000001
 43
0.0000000001
 40
0.0
 40
0.0
 40
0.0
 40
0.0
 40
0.0411807639
 40
0.0738280746
 40
0.1011004716
 40
0.1258408965
 40
0.1740039668
 40
0.2222705698
 40
0.270511138
 40
0.3217421892
 40
0.3787369816
 40
0.4433588121
 40
0.5896612185
 40
0.6655093576
 40
0.7390005390000001
 40
0.8073439200999999
 40
0.8710955970999998
 40
1.0
 40
1.0
 40
1.0
 40
1.0
 10
75.85654309744302
 20
8.53561734183178
 30
0.0
 10
75.85654309744302
 20
8.55594169539178
 30
0.0
 10
75.85887384208297
 20
8.592512620471765
 30
0.0
 10
75.87222345216298
 20
8.64106511417178
 30
0.0
 10
75.893654725023
 20
8.677539740231779
 30
0.0
 10
75.92968991584303
 20
8.712211032331779
 30
0.0
 10
75.984129933963
 20
8.738545333231783
 30
0.0
 10
76.05027827004301
 20
8.765619663131772
 30
0.0
 10
76.108763926503
 20
8.810846986951744
 30
0.0
 10
76.15717250634299
 20
8.871720591391763
 30
0.0
 10
76.19641150838299
 20
8.947966512051763
 30
0.0
 10
76.23886825862303
 20
9.073507119491765
 30
0.0
 10
76.26245701002296
 20
9.214043160491783
 30
0.0
 10
76.26964523034297
 20
9.359854131251765
 30
0.0
 10
76.26543458852296
 20
9.467389422911779
 30
0.0
 10
76.25041766656301
 20
9.568001812491772
 30
0.0
 10
76.21480108044301
 20
9.692131988411759
 30
0.0
 10
76.175237438463
 20
9.778911997731782
 30
0.0
 10
76.14881662770301
 20
9.836785818991771
 30
0.0
  0
SPLINE
  5
63C
330
2
100
AcDbEntity
  8
0
  6
Continuous
 62
     7
100
AcDbSpline
210
0.0
220
0.0
230
1.0
 70
     8
 71
     3
 72
    25
 73
    21
 74
     0
 42
0.0000000001
 43
0.0000000001
 40
0.0
 40
0.0
 40
0.0
 40
0.0
 40
0.0791926895
 40
0.1497942276
 40
0.2040793124
 40
0.2447043896
 40
0.2778696785
 40
0.3065451953
 40
0.3542813743
 40
0.3937690227
 40
0.4332368339000001
 40
0.4762505138000001
 40
0.5276223965
 40
0.6509198271
 40
0.7147705874
 40
0.7732605992
 40
0.8242902975999999
 40
0.874691257
 40
0.9325344318
 40
1.0
 40
1.0
 40
1.0
 40
1.0
 10
75.31062875620301
 20
8.53561734183178
 30
0.0
 10
75.31062875620301
 20
8.572052671551787
 30
0.0
 10
75.31569414612301
 20
8.641174346871778
 30
0.0
 10
75.34093547232299
 20
8.732438667771774
 30
0.0
 10
75.37922890856299
 20
8.799376766051764
 30
0.0
 10
75.42164035028299
 20
8.84112505187177
 30
0.0
 10
75.46161760332302
 20
8.866564358371775
 30
0.0
 10
75.50741453992299
 20
8.887652106391769
 30
0.0
 10
75.55714983796298
 20
8.907598746711769
 30
0.0
 10
75.60399861142298
 20
8.943462678031792
 30
0.0
 10
75.63949444848299
 20
8.987474655031789
 30
0.0
 10
75.66785602498299
 20
9.042530176111753
 30
0.0
 10
75.69907550788298
 20
9.13792943921176
 30
0.0
 10
75.71777968180299
 20
9.246761032571768
 30
0.0
 10
75.72329770734296
 20
9.359719610311756
 30
0.0
 10
75.720354515363
 20
9.439554276651747
 30
0.0
 10
75.70962406438297
 20
9.512549086211762
 30
0.0
 10
75.68897975210302
 20
9.583052442791782
 30
0.0
 10
75.65894846596297
 20
9.658170534871786
 30
0.0
 10
75.63505893284298
 20
9.710645540411761
 30
0.0
 10
75.622168252503
 20
9.738882103191784
 30
0.0
  0
LINE
  5
63D
330
2
100
AcDbEntity
  8
0
  6
Continuous
 62
     7
100
AcDbLine
 10
83.395248106363
 20
3.137109670491781
 30
0.0
 11
83.40187483428298
 21
4.137109672011789
 31
0.0
  0
LINE
  5
63E
330
2
100
AcDbEntity
  8
0
  6
Continuous
 62
     7
100
AcDbLine
 10
117.137650601103
 20
3.137109670491781
 30
0.0
 11
117.131023873183
 21
4.137109672011789
 31
0.0
  0
SPLINE
  5
63F
330
2
100
AcDbEntity
  8
0
  6
Continuous
 62
     7
100
AcDbSpline
210
0.0
220
0.0
230
1.0
 70
     8
 71
     3
 72
    23
 73
    19
 74
     0
 42
0.0000000001
 43
0.0000000001
 40
0.0
 40
0.0
 40
0.0
 40
0.0
 40
0.1289044029
 40
0.1926560799
 40
0.260999461
 40
0.3344906424
 40
0.4103387815
 40
0.5566411879
 40
0.6212630184000001
 40
0.6782578108
 40
0.7294888620000001
 40
0.7777294302
 40
0.8259960331999998
 40
0.8741591034999999
 40
0.8988995283999999
 40
0.9261719254
 40
0.9588192360999999
 40
1.0
 40
1.0
 40
1.0
 40
1.0
 10
75.68239017422303
 20
9.836785818991771
 30
0.0
 10
75.70881098498296
 20
9.778911997731782
 30
0.0
 10
75.74837462696297
 20
9.692131988411759
 30
0.0
 10
75.78399121308297
 20
9.568001812491772
 30
0.0
 10
75.79900813504298
 20
9.467389422911779
 30
0.0
 10
75.80321877686299
 20
9.359854131251765
 30
0.0
 10
75.79603055654297
 20
9.214043160491783
 30
0.0
 10
75.77244180768303
 20
9.073507119491765
 30
0.0
 10
75.72998505490301
 20
8.947966512051763
 30
0.0
 10
75.690746052863
 20
8.871720591391763
 30
0.0
 10
75.64233747302296
 20
8.810846986951744
 30
0.0
 10
75.58385181656297
 20
8.765619663131772
 30
0.0
 10
75.51770348048297
 20
8.738545333231783
 30
0.0
 10
75.46326346236298
 20
8.712211032331779
 30
0.0
 10
75.42722827408301
 20
8.677539740231779
 30
0.0
 10
75.405796998683
 20
8.64106511417178
 30
0.0
 10
75.39244738860299
 20
8.592512620471765
 30
0.0
 10
75.39011664396298
 20
8.55594169539178
 30
0.0
 10
75.39011664396298
 20
8.53561734183178
 30
0.0
  0
SPLINE
  5
640
330
2
100
AcDbEntity
  8
0
  6
Continuous
 62
     7
100
AcDbSpline
210
0.0
220
0.0
230
1.0
 70
     8
 71
     3
 72
    23
 73
    19
 74
     0
 42
0.0000000001
 43
0.0000000001
 40
0.0
 40
0.0
 40
0.0
 40
0.0
 40
0.0411807639
 40
0.0738280746
 40
0.1011004716
 40
0.1258408965
 40
0.1740039668
 40
0.2222705698
 40
0.270511138
 40
0.3217421892
 40
0.3787369816
 40
0.4433588121
 40
0.5896612185
 40
0.6655093576
 40
0.7390005390000001
 40
0.8073439200999999
 40
0.8710955970999998
 40
1.0
 40
1.0
 40
1.0
 40
1.0
 10
125.142782038103
 20
8.53561734183178
 30
0.0
 10
125.142782038103
 20
8.55594169539178
 30
0.0
 10
125.140451296003
 20
8.592512620471765
 30
0.0
 10
125.127101685923
 20
8.64106511417178
 30
0.0
 10
125.105670410523
 20
8.677539740231779
 30
0.0
 10
125.069635222243
 20
8.712211032331779
 30
0.0
 10
125.015195204123
 20
8.738545333231783
 30
0.0
 10
124.949046868043
 20
8.765619663131772
 30
0.0
 10
124.8905612115829
 20
8.810846986951744
 30
0.0
 10
124.842152631743
 20
8.871720591391763
 30
0.0
 10
124.8029136297029
 20
8.947966512051763
 30
0.0
 10
124.7604568769229
 20
9.073507119491765
 30
0.0
 10
124.7368681280629
 20
9.214043160491783
 30
0.0
 10
124.729679907743
 20
9.359854131251765
 30
0.0
 10
124.733890549563
 20
9.467389422911779
 30
0.0
 10
124.748907468983
 20
9.568001812491772
 30
0.0
 10
124.784524057643
 20
9.692131988411759
 30
0.0
 10
124.824087699623
 20
9.778911997731782
 30
0.0
 10
124.850508510383
 20
9.836785818991771
 30
0.0
  0
DIMENSION
  5
641
102
{ACAD_XDICTIONARY
360
642
102
}
102
{ACAD_REACTORS
330
643
102
}
330
2
100
AcDbEntity
  8
0
 62
     5
100
AcDbDimension
  2
*D3
 10
-41.15660826313699
 20
142.7416196578883
 30
0.0
 11
-68.15660826353698
 21
142.7416196578883
 31
0.0
 71
     5
 42
54.0000000008
  3
STANDARD
100
AcDbAlignedDimension
 13
-95.15660826393698
 23
126.7726232651117
 33
0.0
 14
-41.15660826313699
 24
126.7726232651117
 34
0.0
100
AcDbRotatedDimension
1001
ACAD
1000
DSTYLE
1002
{
1070
    42
1040
0.0730807087
1070
    43
1040
0.4443307087
1070
    44
1040
0.2104724409
1070
    47
1040
0.0
1070
    48
1040
0.0
1070
    69
1070
     2
1070
    70
1070
     1
1070
    78
1070
     0
1070
   140
1040
3.0
1070
   141
1040
0.1052362205
1070
   176
1070
     1
1070
   177
1070
     1
1070
   178
1070
   256
1070
   271
1070
     4
1070
   272
1070
     4
1070
   284
1070
     0
1002
}
  0
DIMENSION
  5
651
102
{ACAD_XDICTIONARY
360
652
102
}
102
{ACAD_REACTORS
330
653
102
}
330
2
100
AcDbEntity
  8
0
 62
     5
100
AcDbDimension
  2
*D4
 10
-28.74692919361314
 20
125.7726232661317
 30
0.0
 11
-33.82442919361317
 21
125.5851232661317
 31
0.0
 71
     5
 42
0.9999999989800016
  3
STANDARD
100
AcDbAlignedDimension
 13
-41.15660826313699
 23
126.7726232651117
 33
0.0
 14
-41.15660826313699
 24
125.7726232661317
 34
0.0
 50
90.0
100
AcDbRotatedDimension
1001
ACAD
1000
DSTYLE
1002
{
1070
    42
1040
0.0730807087
1070
    43
1040
0.4443307087
1070
    44
1040
0.2104724409
1070
    47
1040
0.0
1070
    48
1040
0.0
1070
    69
1070
     2
1070
    70
1070
     1
1070
    78
1070
     0
1070
   140
1040
3.0
1070
   141
1040
0.1052362205
1070
   176
1070
     1
1070
   177
1070
     1
1070
   178
1070
   256
1070
   271
1070
     4
1070
   272
1070
     4
1070
   284
1070
     0
1002
}
  0
LINE
  5
662
330
2
100
AcDbEntity
  8
0
 62
     3
100
AcDbLine
 10
-123.8191276879888
 20
27.76188384317766
 30
0.0
 11
-66.65660826379699
 21
25.43710967035178
 31
0.0
  0
LINE
  5
663
330
2
100
AcDbEntity
  8
0
 62
     1
100
AcDbLine
 10
-117.2920304227191
 20
21.17426270305668
 30
0.0
 11
-88.90660826205699
 21
22.13710967143179
 31
0.0
  0
LINE
  5
664
330
2
100
AcDbEntity
  8
0
 62
     2
100
AcDbLine
 10
-128.3796611720881
 20
14.30101008903648
 30
0.0
 11
-71.53801975025544
 21
16.40506668612988
 31
0.0
  0
LINE
  5
665
330
2
100
AcDbEntity
  8
0
 62
     6
100
AcDbLine
 10
-121.0155052798245
 20
-5.3112093585205
 30
0.0
 11
-72.631608264497
 21
-3.362890329228221
 31
0.0
  0
LINE
  5
666
330
2
100
AcDbEntity
  8
0
 62
     5
100
AcDbLine
 10
-119.7900025101416
 20
-39.65219189867594
 30
0.0
 11
-88.85660826299698
 21
-48.91927725030822
 31
0.0
  0
ENDSEC
  0
SECTION
  2
OBJECTS
  0
DICTIONARY
  5
7
330
0
100
AcDbDictionary
281
     1
  3
ACAD_2007HEADERVARS_RT
350
66D
  3
ACAD_COLOR
350
41
  3
ACAD_GROUP
350
35
  3
ACAD_LAYOUT
350
1E
  3
ACAD_MATERIAL
350
9
  3
ACAD_MLINESTYLE
350
36
  3
ACAD_PLOTSETTINGS
350
37
  3
ACAD_PLOTSTYLENAME
350
6
  3
ACAD_TABLESTYLE
350
42
  3
ACAD_VISUALSTYLE
350
2F
  3
AcDbVariableDictionary
350
669
  0
DICTIONARY
  5
19D
330
19C
100
AcDbDictionary
280
     1
281
     1
  3
ACAD_DIMASSOC
360
19E
  0
DICTIONARY
  5
1AE
330
1AD
100
AcDbDictionary
280
     1
281
     1
  3
ACAD_DIMASSOC
360
1AF
  0
DICTIONARY
  5
2FF
330
2FE
100
AcDbDictionary
280
     1
281
     1
  3
ACAD_DIMASSOC
360
300
  0
DICTIONARY
  5
642
330
641
100
AcDbDictionary
280
     1
281
     1
  3
ACAD_DIMASSOC
360
643
  0
DICTIONARY
  5
652
330
651
100
AcDbDictionary
280
     1
281
     1
  3
ACAD_DIMASSOC
360
653
  0
DICTIONARY
  5
66D
102
{ACAD_REACTORS
330
7
102
}
330
7
100
AcDbDictionary
281
     1
  3
DIMTFILL
350
66E
  3
DIMTFILLCLR
350
66F
  0
DICTIONARY
  5
41
102
{ACAD_REACTORS
330
7
102
}
330
7
100
AcDbDictionary
281
     1
  0
DICTIONARY
  5
35
102
{ACAD_REACTORS
330
7
102
}
330
7
100
AcDbDictionary
281
     1
  0
DICTIONARY
  5
1E
102
{ACAD_REACTORS
330
7
102
}
330
7
100
AcDbDictionary
281
     1
  3
Layout1
350
22
  3
Model
350
1D
  0
DICTIONARY
  5
9
102
{ACAD_REACTORS
330
7
102
}
330
7
100
AcDbDictionary
281
     1
  3
ByBlock
350
38
  3
ByLayer
350
13
  3
Global
350
8
  0
DICTIONARY
  5
36
102
{ACAD_REACTORS
330
7
102
}
330
7
100
AcDbDictionary
281
     1
  3
Standard
350
43
  0
DICTIONARY
  5
37
102
{ACAD_REACTORS
330
7
102
}
330
7
100
AcDbDictionary
281
     1
  0
ACDBDICTIONARYWDFLT
  5
6
102
{ACAD_REACTORS
330
7
102
}
330
7
100
AcDbDictionary
281
     1
  3
Normal
350
5
100
AcDbDictionaryWithDefault
340
5
  0
DICTIONARY
  5
42
102
{ACAD_REACTORS
330
7
102
}
330
7
100
AcDbDictionary
281
     1
  3
Standard
350
44
  0
DICTIONARY
  5
2F
102
{ACAD_REACTORS
330
7
102
}
330
7
100
AcDbDictionary
281
     1
  3
2dWireframe
350
2E
  3
3dWireframe
350
48
  3
Realistic
350
47
  0
DICTIONARY
  5
669
102
{ACAD_REACTORS
330
7
102
}
330
7
100
AcDbDictionary
281
     1
  3
CTABLESTYLE
350
66A
  3
LOFTANG1
350
66B
  3
LOFTANG2
350
66C
  0
DIMASSOC
  5
19E
102
{ACAD_REACTORS
330
19D
102
}
330
19D
100
AcDbDimAssoc
330
19C
 90
        3
 70
     0
 71
     0
  1
AcDbOsnapPointRef
 72
     1
331
115
 73
     2
 91
        0
 40
1.0
 10
0.0
 20
0.0
 30
2.000000000000000E+50
 75
     0
  1
AcDbOsnapPointRef
 72
    13
331
115
 73
     2
 91
        0
 40
0.0
 10
0.0
 20
0.0
 30
2.000000000000000E+50
 75
     0
  0
DIMASSOC
  5
1AF
102
{ACAD_REACTORS
330
1AE
102
}
330
1AE
100
AcDbDimAssoc
330
1AD
 90
        3
 70
     0
 71
     0
  1
AcDbOsnapPointRef
 72
     1
331
D3
 73
     2
 91
        0
 40
1.0
 10
0.0
 20
0.0
 30
2.000000000000000E+50
 75
     0
  1
AcDbOsnapPointRef
 72
    13
331
B6
 73
     2
 91
        0
 40
0.0
 10
0.0
 20
0.0
 30
2.000000000000000E+50
 75
     0
  0
DIMASSOC
  5
300
102
{ACAD_REACTORS
330
2FF
102
}
330
2FF
100
AcDbDimAssoc
330
2FE
 90
        3
 70
     0
 71
     0
  1
AcDbOsnapPointRef
 72
     1
331
249
 73
     2
 91
        0
 40
1.0
 10
0.0
 20
0.0
 30
2.000000000000000E+50
 75
     0
  1
AcDbOsnapPointRef
 72
    13
331
249
 73
     2
 91
        0
 40
0.0
 10
0.0
 20
0.0
 30
2.000000000000000E+50
 75
     0
  0
DIMASSOC
  5
643
102
{ACAD_REACTORS
330
642
102
}
330
642
100
AcDbDimAssoc
330
641
 90
        3
 70
     0
 71
     0
  1
AcDbOsnapPointRef
 72
    13
331
486
 73
     2
 91
        0
 40
0.0
 10
0.0
 20
0.0
 30
2.000000000000000E+50
 75
     0
  1
AcDbOsnapPointRef
 72
    13
331
4A9
 73
     2
 91
        0
 40
0.0
 10
0.0
 20
0.0
 30
2.000000000000000E+50
 75
     0
  0
DIMASSOC
  5
653
102
{ACAD_REACTORS
330
652
102
}
330
652
100
AcDbDimAssoc
330
651
 90
        3
 70
     0
 71
     0
  1
AcDbOsnapPointRef
 72
    13
331
4A9
 73
     2
 91
        0
 40
0.0
 10
0.0
 20
0.0
 30
2.000000000000000E+50
 75
     0
  1
AcDbOsnapPointRef
 72
     1
331
4A9
 73
     2
 91
        0
 40
1.0
 10
0.0
 20
0.0
 30
2.000000000000000E+50
 75
     0
  0
XRECORD
  5
66E
102
{ACAD_REACTORS
330
66D
102
}
330
66D
100
AcDbXrecord
280
     1
 70
     2
  0
XRECORD
  5
66F
102
{ACAD_REACTORS
330
66D
102
}
330
66D
100
AcDbXrecord
280
     1
1004
1800000001000000010000C3000000000000000000000000
  0
LAYOUT
  5
22
102
{ACAD_REACTORS
330
1E
102
}
330
1E
100
AcDbPlotSettings
  1

  2
none_device
  4
ISO_A4_(297.00_x_210.00_MM)
  6

 40
0.0
 41
0.0
 42
0.0
 43
0.0
 44
297.0
 45
210.0
 46
0.0
 47
0.0
 48
0.0
 49
0.0
140
0.0
141
0.0
142
1.0
143
1.0
 70
     0
 72
     0
 73
     0
 74
     0
  7

 75
     0
147
1.0
 76
     0
 77
     2
 78
   300
148
0.0
149
0.0
100
AcDbLayout
  1
Layout1
 70
     1
 71
     1
 10
0.0
 20
0.0
 11
12.0
 21
9.0
 12
0.0
 22
0.0
 32
0.0
 14
1.000000000000000E+20
 24
1.000000000000000E+20
 34
1.000000000000000E+20
 15
-1.000000000000000E+20
 25
-1.000000000000000E+20
 35
-1.000000000000000E+20
146
0.0
 13
0.0
 23
0.0
 33
0.0
 16
1.0
 26
0.0
 36
0.0
 17
0.0
 27
1.0
 37
0.0
 76
     0
330
1F
  0
LAYOUT
  5
1D
102
{ACAD_REACTORS
330
1E
102
}
330
1E
100
AcDbPlotSettings
  1

  2
none_device
  4
ISO_A4_(297.00_x_210.00_MM)
  6

 40
0.0
 41
0.0
 42
0.0
 43
0.0
 44
297.0
 45
210.0
 46
0.0
 47
0.0
 48
0.0
 49
0.0
140
0.0
141
0.0
142
1.0
143
1.0
 70
  1024
 72
     0
 73
     0
 74
     0
  7

 75
     0
147
1.0
 76
     0
 77
     2
 78
   300
148
0.0
149
0.0
100
AcDbLayout
  1
Model
 70
     0
 71
     0
 10
0.0
 20
0.0
 11
11.6929133858
 21
8.267716535399999
 12
0.0
 22
0.0
 32
0.0
 14
0.0
 24
0.0
 34
0.0
 15
0.0
 25
0.0
 35
0.0
146
0.0
 13
0.0
 23
0.0
 33
0.0
 16
1.0
 26
0.0
 36
0.0
 17
0.0
 27
1.0
 37
0.0
 76
     0
330
2
331
2D
  0
MATERIAL
  5
38
102
{ACAD_XDICTIONARY
360
39
102
}
102
{ACAD_REACTORS
330
9
102
}
330
9
100
AcDbMaterial
  1
ByBlock
 72
     0
 73
     2
 43
0.0208333333333333
 43
0.0
 43
0.0
 43
0.0
 43
0.0
 43
0.0208333333333333
 43
0.0
 43
0.0
 43
0.0
 43
0.0
 43
1.0
 43
0.0
 43
0.0
 43
0.0
 43
0.0
 43
1.0
 77
     0
 78
     2
 47
0.0208333333333333
 47
0.0
 47
0.0
 47
0.0
 47
0.0
 47
0.0208333333333333
 47
0.0
 47
0.0
 47
0.0
 47
0.0
 47
1.0
 47
0.0
 47
0.0
 47
0.0
 47
0.0
 47
1.0
171
     0
172
     2
 49
0.0208333333333333
 49
0.0
 49
0.0
 49
0.0
 49
0.0
 49
0.0208333333333333
 49
0.0
 49
0.0
 49
0.0
 49
0.0
 49
1.0
 49
0.0
 49
0.0
 49
0.0
 49
0.0
 49
1.0
175
     0
176
     2
142
0.0208333333333333
142
0.0
142
0.0
142
0.0
142
0.0
142
0.0208333333333333
142
0.0
142
0.0
142
0.0
142
0.0
142
1.0
142
0.0
142
0.0
142
0.0
142
0.0
142
1.0
179
     0
270
     2
144
0.0208333333333333
144
0.0
144
0.0
144
0.0
144
0.0
144
0.0208333333333333
144
0.0
144
0.0
144
0.0
144
0.0
144
1.0
144
0.0
144
0.0
144
0.0
144
0.0
144
1.0
274
     2
147
0.0208333333333333
147
0.0
147
0.0
147
0.0
147
0.0
147
0.0208333333333333
147
0.0
147
0.0
147
0.0
147
0.0
147
1.0
147
0.0
147
0.0
147
0.0
147
0.0
147
1.0
  0
MATERIAL
  5
13
102
{ACAD_XDICTIONARY
360
14
102
}
102
{ACAD_REACTORS
330
9
102
}
330
9
100
AcDbMaterial
  1
ByLayer
 72
     0
 73
     2
 43
0.0208333333333333
 43
0.0
 43
0.0
 43
0.0
 43
0.0
 43
0.0208333333333333
 43
0.0
 43
0.0
 43
0.0
 43
0.0
 43
1.0
 43
0.0
 43
0.0
 43
0.0
 43
0.0
 43
1.0
 77
     0
 78
     2
 47
0.0208333333333333
 47
0.0
 47
0.0
 47
0.0
 47
0.0
 47
0.0208333333333333
 47
0.0
 47
0.0
 47
0.0
 47
0.0
 47
1.0
 47
0.0
 47
0.0
 47
0.0
 47
0.0
 47
1.0
171
     0
172
     2
 49
0.0208333333333333
 49
0.0
 49
0.0
 49
0.0
 49
0.0
 49
0.0208333333333333
 49
0.0
 49
0.0
 49
0.0
 49
0.0
 49
1.0
 49
0.0
 49
0.0
 49
0.0
 49
0.0
 49
1.0
175
     0
176
     2
142
0.0208333333333333
142
0.0
142
0.0
142
0.0
142
0.0
142
0.0208333333333333
142
0.0
142
0.0
142
0.0
142
0.0
142
1.0
142
0.0
142
0.0
142
0.0
142
0.0
142
1.0
179
     0
270
     2
144
0.0208333333333333
144
0.0
144
0.0
144
0.0
144
0.0
144
0.0208333333333333
144
0.0
144
0.0
144
0.0
144
0.0
144
1.0
144
0.0
144
0.0
144
0.0
144
0.0
144
1.0
274
     2
147
0.0208333333333333
147
0.0
147
0.0
147
0.0
147
0.0
147
0.0208333333333333
147
0.0
147
0.0
147
0.0
147
0.0
147
1.0
147
0.0
147
0.0
147
0.0
147
0.0
147
1.0
  0
MATERIAL
  5
8
102
{ACAD_XDICTIONARY
360
A
102
}
102
{ACAD_REACTORS
330
9
102
}
330
9
100
AcDbMaterial
  1
Global
 72
     0
 73
     2
 43
0.0208333333333333
 43
0.0
 43
0.0
 43
0.0
 43
0.0
 43
0.0208333333333333
 43
0.0
 43
0.0
 43
0.0
 43
0.0
 43
1.0
 43
0.0
 43
0.0
 43
0.0
 43
0.0
 43
1.0
 77
     0
 78
     2
 47
0.0208333333333333
 47
0.0
 47
0.0
 47
0.0
 47
0.0
 47
0.0208333333333333
 47
0.0
 47
0.0
 47
0.0
 47
0.0
 47
1.0
 47
0.0
 47
0.0
 47
0.0
 47
0.0
 47
1.0
171
     0
172
     2
 49
0.0208333333333333
 49
0.0
 49
0.0
 49
0.0
 49
0.0
 49
0.0208333333333333
 49
0.0
 49
0.0
 49
0.0
 49
0.0
 49
1.0
 49
0.0
 49
0.0
 49
0.0
 49
0.0
 49
1.0
175
     0
176
     2
142
0.0208333333333333
142
0.0
142
0.0
142
0.0
142
0.0
142
0.0208333333333333
142
0.0
142
0.0
142
0.0
142
0.0
142
1.0
142
0.0
142
0.0
142
0.0
142
0.0
142
1.0
179
     0
270
     2
144
0.0208333333333333
144
0.0
144
0.0
144
0.0
144
0.0
144
0.0208333333333333
144
0.0
144
0.0
144
0.0
144
0.0
144
1.0
144
0.0
144
0.0
144
0.0
144
0.0
144
1.0
274
     2
147
0.0208333333333333
147
0.0
147
0.0
147
0.0
147
0.0
147
0.0208333333333333
147
0.0
147
0.0
147
0.0
147
0.0
147
1.0
147
0.0
147
0.0
147
0.0
147
0.0
147
1.0
  0
MLINESTYLE
  5
43
102
{ACAD_REACTORS
330
36
102
}
330
36
100
AcDbMlineStyle
  2
STANDARD
 70
     0
  3

 62
   256
 51
90.0
 52
90.0
 71
     2
 49
0.5
 62
   256
  6
BYLAYER
 49
-0.5
 62
   256
  6
BYLAYER
  0
ACDBPLACEHOLDER
  5
5
102
{ACAD_REACTORS
330
6
102
}
330
6
  0
TABLESTYLE
  5
44
102
{ACAD_XDICTIONARY
360
45
102
}
102
{ACAD_REACTORS
330
42
102
}
330
42
100
AcDbTableStyle
  3
Standard
 70
     0
 71
     0
 40
0.06
 41
0.06
280
     0
281
     0
  7
STANDARD
140
0.18
170
     2
 62
     0
 63
     7
283
     0
274
    -2
284
     1
 64
     0
275
    -2
285
     1
 65
     0
276
    -2
286
     1
 66
     0
277
    -2
287
     1
 67
     0
278
    -2
288
     1
 68
     0
279
    -2
289
     1
 69
     0
  7
STANDARD
140
0.25
170
     5
 62
     0
 63
     7
283
     0
274
    -2
284
     1
 64
     0
275
    -2
285
     1
 65
     0
276
    -2
286
     1
 66
     0
277
    -2
287
     1
 67
     0
278
    -2
288
     1
 68
     0
279
    -2
289
     1
 69
     0
  7
STANDARD
140
0.18
170
     5
 62
     0
 63
     7
283
     0
274
    -2
284
     1
 64
     0
275
    -2
285
     1
 65
     0
276
    -2
286
     1
 66
     0
277
    -2
287
     1
 67
     0
278
    -2
288
     1
 68
     0
279
    -2
289
     1
 69
     0
  0
VISUALSTYLE
  5
2E
102
{ACAD_REACTORS
330
2F
102
}
330
2F
100
AcDbVisualStyle
  2
2dWireframe
 70
     4
 71
     0
 72
     2
 73
     0
 90
        0
 40
-0.6
 41
-30.0
 62
     5
 63
     7
421
 16777215
 74
     1
 91
        4
 64
     7
 65
   257
 75
     1
175
     1
 42
1.0
 92
        0
 66
   257
 43
1.0
 76
     1
 77
     6
 78
     2
 67
     7
 79
     5
170
     0
171
     0
290
     0
174
     0
 93
        1
 44
0.0
173
     0
291
     0
 45
0.0
1001
ACAD
1000
AcDbSavedByObjectVersion
1070
     0
1000
AcDbSavedByObjectVersion
1070
     0
1000
AcDbSavedByObjectVersion
1070
     0
1000
AcDbSavedByObjectVersion
1070
     0
1000
AcDbSavedByObjectVersion
1070
     0
1000
AcDbSavedByObjectVersion
1070
     0
1000
AcDbSavedByObjectVersion
1070
     0
  0
VISUALSTYLE
  5
48
102
{ACAD_REACTORS
330
2F
102
}
330
2F
100
AcDbVisualStyle
  2
3dWireframe
 70
     5
 71
     0
 72
     2
 73
     0
 90
        0
 40
-0.6
 41
-30.0
 62
     5
 63
     7
421
 16777215
 74
     1
 91
        4
 64
     7
 65
   257
 75
     1
175
     1
 42
1.0
 92
        0
 66
   257
 43
1.0
 76
     1
 77
     6
 78
     2
 67
     7
 79
     5
170
     0
171
     0
290
     0
174
     0
 93
        1
 44
0.0
173
     0
291
     0
 45
0.0
1001
ACAD
1000
AcDbSavedByObjectVersion
1070
     0
1000
AcDbSavedByObjectVersion
1070
     0
1000
AcDbSavedByObjectVersion
1070
     0
1000
AcDbSavedByObjectVersion
1070
     0
  0
VISUALSTYLE
  5
47
102
{ACAD_REACTORS
330
2F
102
}
330
2F
100
AcDbVisualStyle
  2
Realistic
 70
     8
 71
     2
 72
     2
 73
     0
 90
        0
 40
-0.6
 41
-30.0
 62
     5
 63
     7
421
 16777215
 74
     1
 91
        0
 64
     7
 65
   257
 75
     1
175
     1
 42
1.0
 92
        8
 66
     8
424
  7895160
 43
1.0
 76
     1
 77
     6
 78
     2
 67
     7
 79
     5
170
     0
171
     0
290
     0
174
     0
 93
       13
 44
0.0
173
     0
291
     0
 45
0.0
1001
ACAD
1000
AcDbSavedByObjectVersion
1070
     0
1000
AcDbSavedByObjectVersion
1070
     0
  0
DICTIONARYVAR
  5
66A
102
{ACAD_REACTORS
330
669
102
}
330
669
100
DictionaryVariables
280
     0
  1
STANDARD
  0
DICTIONARYVAR
  5
66B
102
{ACAD_REACTORS
330
669
102
}
330
669
100
DictionaryVariables
280
     0
  1
1.570796
  0
DICTIONARYVAR
  5
66C
102
{ACAD_REACTORS
330
669
102
}
330
669
100
DictionaryVariables
280
     0
  1
1.570796
  0
DICTIONARY
  5
39
330
38
100
AcDbDictionary
280
     1
281
     1
  3
ACAD_XREC_ROUNDTRIP
360
3A
  3
BUMPTILE
360
3B
  3
DIFFUSETILE
360
3C
  3
OPACITYTILE
360
3D
  3
REFLECTIONTILE
360
3E
  3
REFRACTIONTILE
360
3F
  3
SPECULARTILE
360
40
  0
DICTIONARY
  5
14
330
13
100
AcDbDictionary
280
     1
281
     1
  3
ACAD_XREC_ROUNDTRIP
360
15
  3
BUMPTILE
360
16
  3
DIFFUSETILE
360
17
  3
OPACITYTILE
360
18
  3
REFLECTIONTILE
360
19
  3
REFRACTIONTILE
360
1A
  3
SPECULARTILE
360
1B
  0
DICTIONARY
  5
A
330
8
100
AcDbDictionary
280
     1
281
     1
  3
ACAD_XREC_ROUNDTRIP
360
B
  3
BUMPTILE
360
C
  3
DIFFUSETILE
360
D
  3
OPACITYTILE
360
E
  3
REFLECTIONTILE
360
F
  3
REFRACTIONTILE
360
10
  3
SPECULARTILE
360
11
  0
DICTIONARY
  5
45
330
44
100
AcDbDictionary
280
     1
281
     1
  3
ACAD_ROUNDTRIP_2008_TABLESTYLE_CELLSTYLEMAP
360
46
  3
ACAD_XREC_ROUNDTRIP
360
670
  0
XRECORD
  5
3A
102
{ACAD_REACTORS
330
39
102
}
330
39
100
AcDbXrecord
280
     1
102
MATERIAL
148
0.0
149
0.0
149
0.0
 93
        0
 94
       63
282
     0
 72
     0
 77
     0
171
     0
175
     0
179
     0
273
     0
  0
XRECORD
  5
3B
102
{ACAD_REACTORS
330
39
102
}
330
39
100
AcDbXrecord
280
     1
270
     1
271
     1
  0
XRECORD
  5
3C
102
{ACAD_REACTORS
330
39
102
}
330
39
100
AcDbXrecord
280
     1
270
     1
271
     1
  0
XRECORD
  5
3D
102
{ACAD_REACTORS
330
39
102
}
330
39
100
AcDbXrecord
280
     1
270
     1
271
     1
  0
XRECORD
  5
3E
102
{ACAD_REACTORS
330
39
102
}
330
39
100
AcDbXrecord
280
     1
270
     1
271
     1
  0
XRECORD
  5
3F
102
{ACAD_REACTORS
330
39
102
}
330
39
100
AcDbXrecord
280
     1
270
     1
271
     1
  0
XRECORD
  5
40
102
{ACAD_REACTORS
330
39
102
}
330
39
100
AcDbXrecord
280
     1
270
     1
271
     1
  0
XRECORD
  5
15
102
{ACAD_REACTORS
330
14
102
}
330
14
100
AcDbXrecord
280
     1
102
MATERIAL
148
0.0
149
0.0
149
0.0
 93
        0
 94
       63
282
     0
 72
     0
 77
     0
171
     0
175
     0
179
     0
273
     0
  0
XRECORD
  5
16
102
{ACAD_REACTORS
330
14
102
}
330
14
100
AcDbXrecord
280
     1
270
     1
271
     1
  0
XRECORD
  5
17
102
{ACAD_REACTORS
330
14
102
}
330
14
100
AcDbXrecord
280
     1
270
     1
271
     1
  0
XRECORD
  5
18
102
{ACAD_REACTORS
330
14
102
}
330
14
100
AcDbXrecord
280
     1
270
     1
271
     1
  0
XRECORD
  5
19
102
{ACAD_REACTORS
330
14
102
}
330
14
100
AcDbXrecord
280
     1
270
     1
271
     1
  0
XRECORD
  5
1A
102
{ACAD_REACTORS
330
14
102
}
330
14
100
AcDbXrecord
280
     1
270
     1
271
     1
  0
XRECORD
  5
1B
102
{ACAD_REACTORS
330
14
102
}
330
14
100
AcDbXrecord
280
     1
270
     1
271
     1
  0
XRECORD
  5
B
102
{ACAD_REACTORS
330
A
102
}
330
A
100
AcDbXrecord
280
     1
102
MATERIAL
148
0.0
149
0.0
149
0.0
 93
        0
 94
       63
282
     0
 72
     0
 77
     0
171
     0
175
     0
179
     0
273
     0
  0
XRECORD
  5
C
102
{ACAD_REACTORS
330
A
102
}
330
A
100
AcDbXrecord
280
     1
270
     1
271
     1
  0
XRECORD
  5
D
102
{ACAD_REACTORS
330
A
102
}
330
A
100
AcDbXrecord
280
     1
270
     1
271
     1
  0
XRECORD
  5
E
102
{ACAD_REACTORS
330
A
102
}
330
A
100
AcDbXrecord
280
     1
270
     1
271
     1
  0
XRECORD
  5
F
102
{ACAD_REACTORS
330
A
102
}
330
A
100
AcDbXrecord
280
     1
270
     1
271
     1
  0
XRECORD
  5
10
102
{ACAD_REACTORS
330
A
102
}
330
A
100
AcDbXrecord
280
     1
270
     1
271
     1
  0
XRECORD
  5
11
102
{ACAD_REACTORS
330
A
102
}
330
A
100
AcDbXrecord
280
     1
270
     1
271
     1
  0
ACAD_PROXY_OBJECT
  5
46
102
{ACAD_REACTORS
330
45
102
}
330
45
100
AcDbProxyObject
 90
      499
 91
      508
 95
       27
 70
     0
 93
     1181
310
40D054060020000020000003200101A000080002941600000030400000000000000D03FA4050141501A8000000C800406800020000A5058000000C10002B5E8DC0F42B1CFE90240505406A0000003200101A000080002940A000000304000AD7A3703D0AC73FA40D029065F005400490054004C0045009075F004800450041
310
004400450052009055F0044004100540041004401C
340
25
340
25
340
25
 94
        0
  0
XRECORD
  5
670
102
{ACAD_REACTORS
330
45
102
}
330
45
100
AcDbXrecord
280
     1
102
ACAD_ROUNDTRIP_PRE2007_TABLESTYLE
 90
      512
 91
        0
  1

 92
      512
 93
        0
  2

 94
      512
 95
        0
  3

  0
ENDSEC
  0
EOF
